(Eurodance) Miss Papaya - Pink - 1998, FLAC (image+.cue) lossless

 
 Статистика раздачи 
Размер: 338.4 МБ   |  Зарегистрирован: 12 авг 2014, 00:34   |   .torrent скачан: 0 раз
Сидеров: 1  [ 0 байт/сек ]     Личеров: 0  [ 0 байт/сек ]  
  

(Eurodance) Miss Papaya - Pink - 1998, FLAC (image+.cue) lossless

Сообщение Satch » 12 авг 2014, 00:34

Miss Papaya / Pink

Жанр: Eurodance
Страна-производитель диска: Denmark
Год издания диска: 1998
Издатель (лейбл): Scandinavian Records
Номер по каталогу: SRCD 54238
Страна: Denmark
Аудио кодек: FLAC (*.flac)
Тип рипа: image+.cue
Битрейт аудио: lossless
Продолжительность: 00:43:25
Источник (релизер): Собственный диск
Наличие сканов в содержимом раздачи: да
Треклист:
1 Operator 3:42
2 Hero 3:34
3 Pink Dinosaur 3:10
4 Supergirl (Original Single Version) 3:38
5 Teddy Bear 3:46
6 Sugarboy 3:37
7 Sweet Senorita 3:44
8 Casanova 3:29
9 Cinderella 3:52
10 Mr. Macho Man 3:31
11 Party Song 3:47
12 Please Don't Leave Me Tonight 3:43
Код: Выделить всё
Exact Audio Copy V0.99 prebeta 5 from 4. May 2009

Отчёт EAC об извлечении, выполненном 16. ноября 2010, 15:26

misspapayapink / misspapayapink

Дисковод: HL-DT-STDVDRAM GSA-T50N   Adapter: 1  ID: 0

Режим чтения                 : Достоверность
Использование точного потока : Да
Отключение кэша аудио        : Да
Использование указателей C2  : Нет

Коррекция смещения при чтении                     : 667
Способность читать области Lead-in и Lead-out     : Нет
Заполнение пропущенных сэмплов тишиной            : Да
Удаление блоков с тишиной в начале и конце        : Нет
При вычислениях CRC использовались нулевые сэмплы : Да
Интерфейс                                         : Встроенный Win32-интерфейс для Win NT/2000

Выходной формат : Внутренние WAV-операции
Формат сэмплов  : 44.100 Гц; 16 бит; стерео

TOC извлечённого CD

     Трек |   Старт  | Длительность | Начальный сектор | Конечный сектор
    ---------------------------------------------------------------------
       1  |  0:00.00 |    3:42.25   |           0      |      16674
       2  |  3:42.25 |    3:34.47   |       16675      |      32771
       3  |  7:16.72 |    3:10.53   |       32772      |      47074
       4  | 10:27.50 |    3:24.17   |       47075      |      62391
       5  | 13:51.67 |    3:46.03   |       62392      |      79344
       6  | 17:37.70 |    3:37.52   |       79345      |      95671
       7  | 21:15.47 |    3:44.63   |       95672      |     112534
       8  | 25:00.35 |    3:29.37   |      112535      |     128246
       9  | 28:29.72 |    3:52.28   |      128247      |     145674
      10  | 32:22.25 |    3:31.37   |      145675      |     161536
      11  | 35:53.62 |    3:47.63   |      161537      |     178624
      12  | 39:41.50 |    3:43.57   |      178625      |     195406

Характеристики диапазона извлечения и сообщения об ошибках

Выбранный диапазон

     Имя файла D:\Documents and Settings\User\Мои документы\Моя музыка\misspapayapink - misspapayapink.wav

     Пиковый уровень 100.0 %
     Качество диапазона 100.0 %
     CRC теста FC5FDA52
     CRC копии FC5FDA52
     Копирование... OK

Ошибок не произошло

AccurateRip: сводка

Трек  1  нет в базе данных
Трек  2  нет в базе данных
Трек  3  нет в базе данных
Трек  4  нет в базе данных
Трек  5  нет в базе данных
Трек  6  нет в базе данных
Трек  7  нет в базе данных
Трек  8  нет в базе данных
Трек  9  нет в базе данных
Трек 10  нет в базе данных
Трек 11  нет в базе данных
Трек 12  нет в базе данных

Ни одного трека нет в базе AccurateRip

Конец отчёта
Диск куплен в Копенгагене
 
Не забывайте говорить Спасибо. Не уходите с раздачи!   
Торрент: Зарегистрирован [12 авг 2014, 00:34] Скачать торрент
Скачать торрент
[ Размер 13.88 КБ / Просмотров 23 ]
Статус:
Проверен
 
.torrent скачан: 0 раз
Хэш: 981792bddf47cf1308f242eb4e1d9f15464ea9e8
Размер: 338.4 МБ (354 840 323 байт)
Стать Автором раздачи
 
Аватара пользователя
 
Раздал: 2.45 ГБ
Скачал: 15.94 МБ
Ратио: 157.696
Сообщения: 337733
Зарегистрирован: 16 янв 2012, 17:03


Re: (Eurodance) Miss Papaya - Pink - 1998, FLAC (image+.cue) lossless

Сообщение yuri1 » 03 ноя 2018, 04:34

I Cant download this file, why?
 
Раздал: 200 ГБ
Скачал: 0 байт
Ратио: Seed.
Сообщения: 1
Зарегистрирован: 03 ноя 2018, 03:02


  • Похожие торренты
    Ответы
    Просмотры
    Последнее сообщение

Вернуться в Eurodance, Euro-House, Technopop (lossless)

Ресурс не предоставляет электронные версии произведений, а занимается лишь коллекционированием и каталогизацией ссылок, присылаемых и публикуемых на форуме нашими читателями. Если вы являетесь правообладателем какого-либо представленного материала и не желаете чтобы ссылка на него находилась в нашем каталоге, свяжитесь с нами и мы незамедлительно удалим её. Файлы для обмена на трекере предоставлены пользователями сайта, и администрация не несёт ответственности за их содержание. Просьба не заливать файлы, защищенные авторскими правами, а также файлы нелегального содержания!