(Rock/Punk/Alternative) FAQ - Часто Задаваемые Вопросы - 2004, FLAC (image+.cue), lossless

 
 Статистика раздачи 
Размер: 474.98 МБ   |  Зарегистрирован: 11 авг 2014, 20:51   |   .torrent скачан: 0 раз
Сидеров: 1  [ 0 байт/сек ]     Личеров: 1  [ 0 байт/сек ]  
  

(Rock/Punk/Alternative) FAQ - Часто Задаваемые Вопросы - 2004, FLAC (image+.cue), lossless

Сообщение Thistoll » 11 авг 2014, 20:51

Внимание!!! Торрент файл перезалит! Добавлены сканы!
(Rock/Punk/Alternative) FAQ - Часто Задаваемые Вопросы

Жанр: (Rock/Punk/Alternative)
Год выпуска диска: 2004
Производитель диска: Россия
Аудио кодек: FLAC
Тип рипа: image+.cue
Битрейт аудио: lossless
Продолжительность: 1:05:18
Трэклист:
01. Intro (1:51)
02. Начало (4:23)
03. Бизне$$ (4:29)
04. Погода (5:45)
05. С.Е.К.С. (5:11)
06. Гордись (4:49)
07. Гонка (6:00)
08. А-Б-В-Г-Дейка (3:29)
09. Что мы оставим (5:52)
10. Тех, кого любишь (5:37)
11. Часто Задаваемые Вопросы (4:55)
12. Война (Final) (12:56)
Exact Audio Copy V0.99 prebeta 4 from 23. January 2008

Отчёт EAC об извлечении, выполненном 1. декабря 2009, 21:03

FAQ / Часто Задаваемые Впросы

Дисковод: _NEC DVD_RW ND-3520AW Adapter: 2 ID: 1

Режим чтения : Достоверность
Использование точного потока : Да
Отключение кэша аудио : Да
Использование указателей C2 : Нет

Коррекция смещения при чтении : 48
Способность читать области Lead-in и Lead-out : Нет
Заполнение пропущенных сэмплов тишиной : Да
Удаление блоков с тишиной в начале и конце : Нет
При вычислениях CRC использовались нулевые сэмплы : Да
Интерфейс : Встроенный Win32-интерфейс для Win NT/2000

Выходной формат : Пользовательский кодировщик
Выбранный битрейт : 896 kBit/s
Качество : Высокий
Добавление ID3-тэга : Нет
Утилита сжатия : C:\Program Files (x86)\Exact Audio Copy\FLAC\FLAC.EXE
Дополнительные параметры : -6 -V -T "ARTIST=%a" -T "TITLE=%t" -T "ALBUM=%g" -T "DATE=%y" -T "TRACKNUMBER=%n" -T "GENRE=%m" -T "COMMENT=%e" %s -o %d

TOC извлечённого CD

Трек | Старт | Длительность | Начальный сектор | Конечный сектор
---------------------------------------------------------------------
1 | 0:00.00 | 1:50.60 | 0 | 8309
2 | 1:50.60 | 4:22.38 | 8310 | 27997
3 | 6:13.23 | 4:29.20 | 27998 | 48192
4 | 10:42.43 | 5:45.28 | 48193 | 74095
5 | 16:27.71 | 5:11.24 | 74096 | 97444
6 | 21:39.20 | 4:49.10 | 97445 | 119129
7 | 26:28.30 | 6:00.32 | 119130 | 146161
8 | 32:28.62 | 3:28.70 | 146162 | 161831
9 | 35:57.57 | 5:52.01 | 161832 | 188232
10 | 41:49.58 | 5:36.52 | 188233 | 213484
11 | 47:26.35 | 4:54.63 | 213485 | 235597
12 | 52:21.23 | 12:56.32 | 235598 | 293829

Характеристики диапазона извлечения и сообщения об ошибках

Выбранный диапазон

Имя файла H:\FAQ\Часто Задаваемые Впросы\FAQ - Часто Задаваемые Впросы.wav

Пиковый уровень 100.0 %
Качество диапазона 99.9 %
CRC теста 0DCE87AF
CRC копии 0DCE87AF
Копирование... OK

Ошибок не произошло

Конец отчёта
 
Не забывайте говорить Спасибо. Не уходите с раздачи!   
Торрент: Зарегистрирован [11 авг 2014, 20:51] Для скачивания .torrent
необходима регистрация
Или скачать с помощью
MediaGet
Статус:
Проверен
 
.torrent скачан: 0 раз
Хэш: 897ddf1a83ee2ad2b84f7da009e933e22e376ef1
Размер: 474.98 МБ (498 050 231 байт)
Стать Автором раздачи
 
 
Раздал: 6.67 ГБ
Скачал: 302.5 МБ
Ратио: 22.576
Сообщения: 374198
Зарегистрирован: 17 апр 2014, 11:05


Вернуться в Рок, Панк, Альтернатива (lossless)

Ресурс не предоставляет электронные версии произведений, а занимается лишь коллекционированием и каталогизацией ссылок, присылаемых и публикуемых на форуме нашими читателями. Если вы являетесь правообладателем какого-либо представленного материала и не желаете чтобы ссылка на него находилась в нашем каталоге, свяжитесь с нами и мы незамедлительно удалим её. Файлы для обмена на трекере предоставлены пользователями сайта, и администрация не несёт ответственности за их содержание. Просьба не заливать файлы, защищенные авторскими правами, а также файлы нелегального содержания!
cron