(Punk Rock) Klover - Feel Lucky Punk - 1995, FLAC (image+.cue), lossless

 
 Статистика раздачи 
Размер: 272.91 МБ   |  Зарегистрирован: 11 авг 2014, 18:32   |   .torrent скачан: 0 раз
Сидеров: 1  [ 0 байт/сек ]     Личеров: 0  [ 0 байт/сек ]  
  

(Punk Rock) Klover - Feel Lucky Punk - 1995, FLAC (image+.cue), lossless

Сообщение bagouser » 11 авг 2014, 18:32

Klover / Feel Lucky Punk

Жанр: Punk Rock
Страна-производитель диска: US
Год издания: 1995
Издатель (лейбл): Mercury
Номер по каталогу: 314 526 813-2
Страна: US
Аудиокодек: FLAC (*.flac)
Тип рипа: image+.cue
Битрейт аудио: lossless
Продолжительность: 0:34:24
Источник (релизер): avaxhome
Наличие сканов в содержимом раздачи: да
Треклист:
01. Our Way (2:43)
02. Beginning to End (2:50)
03. Here I Go Again (2:57)
04. All Kindsa Girls (3:42)
05. What a Waste (3:10)
06. I Wanna Be (2:13)
07. Memory (2:37)
08. Brain (3:07)
09. Illusions (Make It Go Away) (3:05)
10. Sandbag (3:18)
11. Building a Wall (2:10)
12. Y.R.U. (Still Here) (2:31)
Код: Выделить всё
Exact Audio Copy V0.99 prebeta 5 from 4. May 2009

EAC extraction logfile from 1. November 2010, 19:05

Klover / Feel Lucky Punk

Used drive  : PIONEER DVD-RW  DVR-116D   Adapter: 1  ID: 0

Read mode               : Secure
Utilize accurate stream : Yes
Defeat audio cache      : Yes
Make use of C2 pointers : No

Read offset correction                      : 96
Overread into Lead-In and Lead-Out          : No
Fill up missing offset samples with silence : Yes
Delete leading and trailing silent blocks   : No
Null samples used in CRC calculations       : Yes
Used interface                              : Installed external ASPI interface

Used output format : Internal WAV Routines
Sample format      : 44.100 Hz; 16 Bit; Stereo

TOC of the extracted CD

     Track |   Start  |  Length  | Start sector | End sector
    ---------------------------------------------------------
        1  |  0:00.32 |  2:42.60 |        32    |    12241
        2  |  2:43.17 |  2:50.28 |     12242    |    25019
        3  |  5:33.45 |  2:57.07 |     25020    |    38301
        4  |  8:30.52 |  3:42.30 |     38302    |    54981
        5  | 12:13.07 |  3:09.48 |     54982    |    69204
        6  | 15:22.55 |  2:12.57 |     69205    |    79161
        7  | 17:35.37 |  2:36.60 |     79162    |    90921
        8  | 20:12.22 |  3:06.70 |     90922    |   104941
        9  | 23:19.17 |  3:05.33 |    104942    |   118849
       10  | 26:24.50 |  3:17.70 |    118850    |   133694
       11  | 29:42.45 |  2:10.37 |    133695    |   143481
       12  | 31:53.07 |  2:31.30 |    143482    |   154836

Range status and errors

Selected range

     Filename C:\AvaxHome.ru\Klover - Feel Lucky Punk (1995)\Klover - Feel Lucky Punk (526813-2).wav

     Peak level 100.0 %
     Range quality 99.9 %
     Test CRC 87364ECF
     Copy CRC 87364ECF
     Copy OK

No errors occurred

AccurateRip summary

Track  1  not present in database
Track  2  not present in database
Track  3  not present in database
Track  4  not present in database
Track  5  not present in database
Track  6  not present in database
Track  7  not present in database
Track  8  not present in database
Track  9  not present in database
Track 10  not present in database
Track 11  not present in database
Track 12  not present in database

None of the tracks are present in the AccurateRip database

End of status report
 
Не забывайте говорить Спасибо. Не уходите с раздачи!   
Торрент: Зарегистрирован [11 авг 2014, 18:32] Скачать торрент
Скачать торрент
[ Размер 11.76 КБ / Просмотров 22 ]
Статус:
Проверен
 
.torrent скачан: 0 раз
Хэш: 30f07db789f16ea754c5c0136fead4dd35304efd
Размер: 272.91 МБ (286 166 725 байт)
Стать Автором раздачи
 
Аватара пользователя
 
Раздал: 3.77 ТБ
Скачал: 406.3 ГБ
Ратио: 9.496
Сообщения: 468710
Зарегистрирован: 20 янв 2011, 21:15


Re: (Punk Rock) Klover - Feel Lucky Punk - 1995, FLAC (image+.cue), lossless

Сообщение abrandon » 30 апр 2019, 04:45

Por favor no hay semillas , quiero escuchar este album ruego a usted por favor comparta la descarga
Пожалуйста, не семена, я хочу прослушать этот альбом, я прошу вас, пожалуйста, поделитесь загрузкой :cry: :cry: :cry:
 
Раздал: 200 ГБ
Скачал: 0 байт
Ратио: Seed.
Сообщения: 1
Зарегистрирован: 28 апр 2019, 22:47


  • Похожие торренты
    Ответы
    Просмотры
    Последнее сообщение

Вернуться в Punk (lossless)

Ресурс не предоставляет электронные версии произведений, а занимается лишь коллекционированием и каталогизацией ссылок, присылаемых и публикуемых на форуме нашими читателями. Если вы являетесь правообладателем какого-либо представленного материала и не желаете чтобы ссылка на него находилась в нашем каталоге, свяжитесь с нами и мы незамедлительно удалим её. Файлы для обмена на трекере предоставлены пользователями сайта, и администрация не несёт ответственности за их содержание. Просьба не заливать файлы, защищенные авторскими правами, а также файлы нелегального содержания!