(Post-Bop) Charles Mingus - The Jazz Workshop Concerts 1964-65 [7CD] [Mosaic Records MD7-253] - 2012, FLAC (tracks+.cue), lossless

 
 Статистика раздачи 
Размер: 2.06 ГБ   |  Зарегистрирован: 24 июл 2014, 03:11   |   .torrent скачан: 1 раз
Сидеров: 1  [ 0 байт/сек ]     Личеров: 0  [ 0 байт/сек ]  
  

(Post-Bop) Charles Mingus - The Jazz Workshop Concerts 1964-65 [7CD] [Mosaic Records MD7-253] - 2012, FLAC (tracks+.cue), lossless

Сообщение Seepas » 24 июл 2014, 03:11

Charles Mingus / The Jazz Workshop Concerts 1964-65 [7CD] [Mosaic Records]


Жанр: Post-Bop
Страна-производитель диска: USA
Год издания: 2012
Издатель (лейбл): Mosaic Records
Номер по каталогу: MD7-253
Страна: USA
Аудиокодек: FLAC (*.flac)
Тип рипа: tracks+.cue
Битрейт аудио: lossless
Продолжительность: 07:18:22
Источник (релизер): Neener
Наличие сканов в содержимом раздачи: нет
Town Hall Concert, April 4, 1964

1. A. T. F. W. (A) 4:20 (Jaki Byard)
2. Sophisticated Lady (A) 5:49 (Duke Ellington)
3. So Long Eric (A) 17:46 (Charles Mingus)
4. Praying With Eric (A) 27:35 (Charles Mingus)
Код: Выделить всё
X Lossless Decoder version 20121027 (142.1)

XLD extraction logfile from 2012-11-12 15:32:23 -0600

Charles Mingus / The Jazz Workshop Concerts 1964-65 [Disc 1]

Used drive : MATSHITA DVD-R   UJ-898 (revision HC10)

Ripper mode             : XLD Secure Ripper
Disable audio cache     : OK for the drive with a cache less than 1375KiB
Make use of C2 pointers : NO
Read offset correction  : 102
Max retry count         : 100
Gap status              : Analyzed, Appended

TOC of the extracted CD
     Track |   Start  |  Length  | Start sector | End sector
    ---------------------------------------------------------
        1  | 00:00:00 | 04:20:16 |         0    |    19515
        2  | 04:20:16 | 05:51:09 |     19516    |    45849
        3  | 10:11:25 | 17:46:29 |     45850    |   125828
        4  | 27:57:54 | 27:27:11 |    125829    |   249364

AccurateRip Summary
    Disc not found in AccurateRip DB.

All Tracks
    Album gain               : -4.11 dB
    Peak                     : 0.999969
    Statistics
        Read error                           : 0
        Jitter error (maybe fixed)           : 0
        Retry sector count                   : 0
        Damaged sector count                 : 0

Track 01
    Filename : /Users/Bobo/Desktop/Charles Mingus - The Jazz Workshop Concerts 1964-65/Disc 1/01 Charles Mingus - A.T.F.W. (A).flac
    Pre-gap length : 00:02:00

    Track gain               : -3.79 dB
    Peak                     : 0.999969
    CRC32 hash (test run)    : A686EEAD
    CRC32 hash               : A686EEAD
    CRC32 hash (skip zero)   : 9AB3A964
    AccurateRip v1 signature : 219EFF25
    AccurateRip v2 signature : F3F9563B
        ->Track not present in AccurateRip database.
    Statistics
        Read error                           : 0
        Jitter error (maybe fixed)           : 0
        Retry sector count                   : 0
        Damaged sector count                 : 0

Track 02
    Filename : /Users/Bobo/Desktop/Charles Mingus - The Jazz Workshop Concerts 1964-65/Disc 1/02 Charles Mingus - Sophisticated Lady (A).flac

    Track gain               : -2.49 dB
    Peak                     : 0.793579
    CRC32 hash (test run)    : 0D160C24
    CRC32 hash               : 0D160C24
    CRC32 hash (skip zero)   : 1940C91F
    AccurateRip v1 signature : D4CCE34B
    AccurateRip v2 signature : E4E80A37
        ->Track not present in AccurateRip database.
    Statistics
        Read error                           : 0
        Jitter error (maybe fixed)           : 0
        Retry sector count                   : 0
        Damaged sector count                 : 0

Track 03
    Filename : /Users/Bobo/Desktop/Charles Mingus - The Jazz Workshop Concerts 1964-65/Disc 1/03 Charles Mingus - So Long Eric (A).flac

    Track gain               : -4.05 dB
    Peak                     : 0.940552
    CRC32 hash (test run)    : E891891A
    CRC32 hash               : E891891A
    CRC32 hash (skip zero)   : 1861C1CB
    AccurateRip v1 signature : 73F72BA2
    AccurateRip v2 signature : E2FD61D6
        ->Track not present in AccurateRip database.
    Statistics
        Read error                           : 0
        Jitter error (maybe fixed)           : 0
        Retry sector count                   : 0
        Damaged sector count                 : 0

Track 04
    Filename : /Users/Bobo/Desktop/Charles Mingus - The Jazz Workshop Concerts 1964-65/Disc 1/04 Charles Mingus - Praying With Eric (A).flac

    Track gain               : -4.30 dB
    Peak                     : 0.951294
    CRC32 hash (test run)    : 34238FD2
    CRC32 hash               : 34238FD2
    CRC32 hash (skip zero)   : CE450B77
    AccurateRip v1 signature : CA50AB1B
    AccurateRip v2 signature : 5264CAF0
        ->Track not present in AccurateRip database.
    Statistics
        Read error                           : 0
        Jitter error (maybe fixed)           : 0
        Retry sector count                   : 0
        Damaged sector count                 : 0

No errors occurred

End of status report
Код: Выделить всё
TITLE "The Jazz Workshop Concerts 1964-65 [Disc 1]"
PERFORMER "Charles Mingus"
REM GENRE "Jazz"
REM DATE "2012"
REM DISCNUMBER 1
REM TOTALDISCS 7
REM DISCID 2D0CFC04
REM REPLAYGAIN_ALBUM_GAIN -4.11 dB
REM REPLAYGAIN_ALBUM_PEAK 0.999969
FILE "01 Charles Mingus - A.T.F.W. (A).flac" WAVE
  TRACK 01 AUDIO
    TITLE "A.T.F.W. (A)"
    REM REPLAYGAIN_TRACK_GAIN -3.79 dB
    REM REPLAYGAIN_TRACK_PEAK 0.999969
    INDEX 01 00:00:00
FILE "02 Charles Mingus - Sophisticated Lady (A).flac" WAVE
  TRACK 02 AUDIO
    TITLE "Sophisticated Lady (A)"
    REM REPLAYGAIN_TRACK_GAIN -2.49 dB
    REM REPLAYGAIN_TRACK_PEAK 0.793579
    INDEX 01 00:00:00
FILE "03 Charles Mingus - So Long Eric (A).flac" WAVE
  TRACK 03 AUDIO
    TITLE "So Long Eric (A)"
    REM REPLAYGAIN_TRACK_GAIN -4.05 dB
    REM REPLAYGAIN_TRACK_PEAK 0.940552
    INDEX 01 00:00:00
FILE "04 Charles Mingus - Praying With Eric (A).flac" WAVE
  TRACK 04 AUDIO
    TITLE "Praying With Eric (A)"
    REM REPLAYGAIN_TRACK_GAIN -4.30 dB
    REM REPLAYGAIN_TRACK_PEAK 0.951294
    INDEX 01 00:00:00[pre]
Town Hall Concert, April 4, 1964

1. Peggy’s Blue Skylight (A) 19:13 (Charles Mingus)
2. Parkeriana, part one (A) 6:38 (Charles Mingus)
3. Parkeriana, part two (A) 8:57 (Charles Mingus)
4. Fables Of Faubus (A) 11:06 (Charles Mingus)
X Lossless Decoder version 20121027 (142.1)

XLD extraction logfile from 2012-11-12 15:58:02 -0600

Charles Mingus / The Jazz Workshop Concerts 1964-65 [Disc 2]

Used drive : MATSHITA DVD-R UJ-898 (revision HC10)

Ripper mode : XLD Secure Ripper
Disable audio cache : OK for the drive with a cache less than 1375KiB
Make use of C2 pointers : NO
Read offset correction : 102
Max retry count : 100
Gap status : Analyzed, Appended

TOC of the extracted CD
Track | Start | Length | Start sector | End sector
---------------------------------------------------------
1 | 00:00:00 | 19:03:67 | 0 | 85791
2 | 19:03:67 | 06:38:39 | 85792 | 115680
3 | 25:42:31 | 08:28:59 | 115681 | 153839
4 | 34:11:15 | 11:14:19 | 153840 | 204408

AccurateRip Summary
Disc not found in AccurateRip DB.

All Tracks
Album gain : -1.74 dB
Peak : 0.996490
Statistics
Read error : 0
Jitter error (maybe fixed) : 0
Retry sector count : 0
Damaged sector count : 0

Track 01
Filename : /Users/Bobo/Desktop/Charles Mingus - The Jazz Workshop Concerts 1964-65/Disc 2/01 Charles Mingus - Peggy's Blue Skylight (A).flac
Pre-gap length : 00:02:00

Track gain : -1.34 dB
Peak : 0.996490
CRC32 hash (test run) : 15F840AF
CRC32 hash : 15F840AF
CRC32 hash (skip zero) : EFB55B9C
AccurateRip v1 signature : F1376227
AccurateRip v2 signature : 97F9B530
->Track not present in AccurateRip database.
Statistics
Read error : 0
Jitter error (maybe fixed) : 0
Retry sector count : 0
Damaged sector count : 0

Track 02
Filename : /Users/Bobo/Desktop/Charles Mingus - The Jazz Workshop Concerts 1964-65/Disc 2/02 Charles Mingus - Parkeriana, Part One (A).flac

Track gain : -3.29 dB
Peak : 0.996460
CRC32 hash (test run) : 0F31ABF6
CRC32 hash : 0F31ABF6
CRC32 hash (skip zero) : AD64E6DB
AccurateRip v1 signature : 2E3D7F99
AccurateRip v2 signature : D7EBCA2F
->Track not present in AccurateRip database.
Statistics
Read error : 0
Jitter error (maybe fixed) : 0
Retry sector count : 0
Damaged sector count : 0

Track 03
Filename : /Users/Bobo/Desktop/Charles Mingus - The Jazz Workshop Concerts 1964-65/Disc 2/03 Charles Mingus - Parkeriana, Part Two (A).flac

Track gain : -1.86 dB
Peak : 0.959320
CRC32 hash (test run) : 073A9743
CRC32 hash : 073A9743
CRC32 hash (skip zero) : 48CD3D8F
AccurateRip v1 signature : 579E4204
AccurateRip v2 signature : F6007FC6
->Track not present in AccurateRip database.
Statistics
Read error : 0
Jitter error (maybe fixed) : 0
Retry sector count : 0
Damaged sector count : 0

Track 04
Filename : /Users/Bobo/Desktop/Charles Mingus - The Jazz Workshop Concerts 1964-65/Disc 2/04 Charles Mingus - Fables Of Faubus (A).flac

Track gain : 1.19 dB
Peak : 0.828827
CRC32 hash (test run) : CA795053
CRC32 hash : CA795053
CRC32 hash (skip zero) : 59361A07
AccurateRip v1 signature : 36DA651C
AccurateRip v2 signature : 7A0D059B
->Track not present in AccurateRip database.
Statistics
Read error : 0
Jitter error (maybe fixed) : 0
Retry sector count : 0
Damaged sector count : 0

No errors occurred

End of status report
Код: Выделить всё
TITLE "The Jazz Workshop Concerts 1964-65 [Disc 2]"
PERFORMER "Charles Mingus"
REM GENRE "Jazz"
REM DATE "2012"
REM DISCNUMBER 2
REM TOTALDISCS 7
REM DISCID 250AA504
REM REPLAYGAIN_ALBUM_GAIN -1.74 dB
REM REPLAYGAIN_ALBUM_PEAK 0.996490
FILE "01 Charles Mingus - Peggy's Blue Skylight (A).flac" WAVE
  TRACK 01 AUDIO
    TITLE "Peggy's Blue Skylight (A)"
    REM REPLAYGAIN_TRACK_GAIN -1.34 dB
    REM REPLAYGAIN_TRACK_PEAK 0.996490
    INDEX 01 00:00:00
FILE "02 Charles Mingus - Parkeriana, Part One (A).flac" WAVE
  TRACK 02 AUDIO
    TITLE "Parkeriana, Part One (A)"
    REM REPLAYGAIN_TRACK_GAIN -3.29 dB
    REM REPLAYGAIN_TRACK_PEAK 0.996460
    INDEX 01 00:00:00
FILE "03 Charles Mingus - Parkeriana, Part Two (A).flac" WAVE
  TRACK 03 AUDIO
    TITLE "Parkeriana, Part Two (A)"
    REM REPLAYGAIN_TRACK_GAIN -1.86 dB
    REM REPLAYGAIN_TRACK_PEAK 0.959320
    INDEX 01 00:00:00
FILE "04 Charles Mingus - Fables Of Faubus (A).flac" WAVE
  TRACK 04 AUDIO
    TITLE "Fables Of Faubus (A)"
    REM REPLAYGAIN_TRACK_GAIN 1.19 dB
    REM REPLAYGAIN_TRACK_PEAK 0.828827
    INDEX 01 00:00:00[pre]
Concertgebouw, Amsterdam, April 10, 1964

1. A. T. F. W. (B) 4:50 (Jaki Byard)
2. Parkeriana (B) 21:20 (Charles Mingus)
3. So Long Eric (B) 22:19 (Charles Mingus)
4. Orange Was The Color Of Her Dress, Then Blue Silk (B) 13:53 (Charles Mingus)
X Lossless Decoder version 20121027 (142.1)

XLD extraction logfile from 2012-11-12 16:14:15 -0600

Charles Mingus / The Jazz Workshop Concerts 1964-65 [Disc 3]

Used drive : MATSHITA DVD-R UJ-898 (revision HC10)

Ripper mode : XLD Secure Ripper
Disable audio cache : OK for the drive with a cache less than 1375KiB
Make use of C2 pointers : NO
Read offset correction : 102
Max retry count : 100
Gap status : Analyzed, Appended

TOC of the extracted CD
Track | Start | Length | Start sector | End sector
---------------------------------------------------------
1 | 00:00:00 | 04:50:51 | 0 | 21800
2 | 04:50:51 | 21:21:24 | 21801 | 117899
3 | 26:12:00 | 22:17:36 | 117900 | 218210
4 | 48:29:36 | 13:56:61 | 218211 | 280971

AccurateRip Summary
Disc not found in AccurateRip DB.

All Tracks
Album gain : -5.95 dB
Peak : 0.999969
Statistics
Read error : 0
Jitter error (maybe fixed) : 0
Retry sector count : 0
Damaged sector count : 0

Track 01
Filename : /Users/Bobo/Desktop/Charles Mingus - The Jazz Workshop Concerts 1964-65/Disc 3/01 Charles Mingus - A.T.F.W. (B).flac
Pre-gap length : 00:02:00

Track gain : -7.20 dB
Peak : 0.932281
CRC32 hash (test run) : 9EC6F563
CRC32 hash : 9EC6F563
CRC32 hash (skip zero) : BF094916
AccurateRip v1 signature : 10047736
AccurateRip v2 signature : 0F076F64
->Track not present in AccurateRip database.
Statistics
Read error : 0
Jitter error (maybe fixed) : 0
Retry sector count : 0
Damaged sector count : 0

Track 02
Filename : /Users/Bobo/Desktop/Charles Mingus - The Jazz Workshop Concerts 1964-65/Disc 3/02 Charles Mingus - Parkeriana (B).flac

Track gain : -6.85 dB
Peak : 0.999969
CRC32 hash (test run) : F39FC554
CRC32 hash : F39FC554
CRC32 hash (skip zero) : D4A68339
AccurateRip v1 signature : 6F9623BF
AccurateRip v2 signature : 89EBEADB
->Track not present in AccurateRip database.
Statistics
Read error : 0
Jitter error (maybe fixed) : 0
Retry sector count : 0
Damaged sector count : 0

Track 03
Filename : /Users/Bobo/Desktop/Charles Mingus - The Jazz Workshop Concerts 1964-65/Disc 3/03 Charles Mingus - So Long Eric (B).flac

Track gain : -5.26 dB
Peak : 0.945343
CRC32 hash (test run) : E68E3028
CRC32 hash : E68E3028
CRC32 hash (skip zero) : FA8FD838
AccurateRip v1 signature : 6694E6D4
AccurateRip v2 signature : A555FBA2
->Track not present in AccurateRip database.
Statistics
Read error : 0
Jitter error (maybe fixed) : 0
Retry sector count : 0
Damaged sector count : 0

Track 04
Filename : /Users/Bobo/Desktop/Charles Mingus - The Jazz Workshop Concerts 1964-65/Disc 3/04 Charles Mingus - Orange Was the Color of Her Dress, Then Blue Silk (B).flac

Track gain : -3.61 dB
Peak : 0.941345
CRC32 hash (test run) : 8E7FBF59
CRC32 hash : 8E7FBF59
CRC32 hash (skip zero) : 68601061
AccurateRip v1 signature : 41BCAE4B
AccurateRip v2 signature : B126C35E
->Track not present in AccurateRip database.
Statistics
Read error : 0
Jitter error (maybe fixed) : 0
Retry sector count : 0
Damaged sector count : 0

No errors occurred

End of status report
Код: Выделить всё
TITLE "The Jazz Workshop Concerts 1964-65 [Disc 3]"
PERFORMER "Charles Mingus"
REM GENRE "Jazz"
REM DATE "2012"
REM DISCNUMBER 3
REM TOTALDISCS 7
REM DISCID 2D0EA204
REM REPLAYGAIN_ALBUM_GAIN -5.95 dB
REM REPLAYGAIN_ALBUM_PEAK 0.999969
FILE "01 Charles Mingus - A.T.F.W. (B).flac" WAVE
  TRACK 01 AUDIO
    TITLE "A.T.F.W. (B)"
    REM REPLAYGAIN_TRACK_GAIN -7.20 dB
    REM REPLAYGAIN_TRACK_PEAK 0.932281
    INDEX 01 00:00:00
FILE "02 Charles Mingus - Parkeriana (B).flac" WAVE
  TRACK 02 AUDIO
    TITLE "Parkeriana (B)"
    REM REPLAYGAIN_TRACK_GAIN -6.85 dB
    REM REPLAYGAIN_TRACK_PEAK 0.999969
    INDEX 01 00:00:00
FILE "03 Charles Mingus - So Long Eric (B).flac" WAVE
  TRACK 03 AUDIO
    TITLE "So Long Eric (B)"
    REM REPLAYGAIN_TRACK_GAIN -5.26 dB
    REM REPLAYGAIN_TRACK_PEAK 0.945343
    INDEX 01 00:00:00
FILE "04 Charles Mingus - Orange Was the Color of Her Dress, Then Blue Silk (B).flac" WAVE
  TRACK 04 AUDIO
    TITLE "Orange Was the Color of Her Dress, Then Blue Silk (B)"
    REM REPLAYGAIN_TRACK_GAIN -3.61 dB
    REM REPLAYGAIN_TRACK_PEAK 0.941345
    INDEX 01 00:00:00[pre]
Concertgebouw, Amsterdam, April 10, 1964

1. Sophisticated Lady (B) 5:34 (Duke Ellington)
2. Meditations On A Pair Of Wire Cutters (B) 23:03 (Charles Mingus)
3. Fables Of Faubus (B) 30:40 (Charles Mingus)
X Lossless Decoder version 20121027 (142.1)

XLD extraction logfile from 2012-11-12 18:21:05 -0600

Charles Mingus / The Jazz Workshop Concerts 1964-65 [Disc 4]

Used drive : MATSHITA DVD-R UJ-898 (revision HC10)

Ripper mode : XLD Secure Ripper
Disable audio cache : OK for the drive with a cache less than 1375KiB
Make use of C2 pointers : NO
Read offset correction : 102
Max retry count : 100
Gap status : Analyzed, Appended

TOC of the extracted CD
Track | Start | Length | Start sector | End sector
---------------------------------------------------------
1 | 00:00:00 | 05:34:65 | 0 | 25114
2 | 05:34:65 | 23:04:42 | 25115 | 128956
3 | 28:39:32 | 30:40:30 | 128957 | 266986

AccurateRip Summary
Disc not found in AccurateRip DB.

All Tracks
Album gain : -0.61 dB
Peak : 0.999969
Statistics
Read error : 0
Jitter error (maybe fixed) : 0
Retry sector count : 0
Damaged sector count : 0

Track 01
Filename : /Users/Bobo/Desktop/Charles Mingus - The Jazz Workshop Concerts 1964-65/Disc 4/01 Charles Mingus - Sophisticated Lady (B).flac
Pre-gap length : 00:02:00

Track gain : 0.01 dB
Peak : 0.999969
CRC32 hash (test run) : E1092E5F
CRC32 hash : E1092E5F
CRC32 hash (skip zero) : C2A2AFB3
AccurateRip v1 signature : 7E7FE740
AccurateRip v2 signature : 534EAF43
->Track not present in AccurateRip database.
Statistics
Read error : 0
Jitter error (maybe fixed) : 0
Retry sector count : 0
Damaged sector count : 0

Track 02
Filename : /Users/Bobo/Desktop/Charles Mingus - The Jazz Workshop Concerts 1964-65/Disc 4/02 Charles Mingus - Meditations On Integration (B).flac

Track gain : 0.21 dB
Peak : 0.965546
CRC32 hash (test run) : B431C2F2
CRC32 hash : B431C2F2
CRC32 hash (skip zero) : 329B66A4
AccurateRip v1 signature : 81994DD7
AccurateRip v2 signature : DFD823FE
->Track not present in AccurateRip database.
Statistics
Read error : 0
Jitter error (maybe fixed) : 0
Retry sector count : 0
Damaged sector count : 0

Track 03
Filename : /Users/Bobo/Desktop/Charles Mingus - The Jazz Workshop Concerts 1964-65/Disc 4/03 Charles Mingus - Fables of Faubus (B).flac

Track gain : -1.11 dB
Peak : 0.979950
CRC32 hash (test run) : A595B4CB
CRC32 hash : A595B4CB
CRC32 hash (skip zero) : 72D2BA0A
AccurateRip v1 signature : 2600B31C
AccurateRip v2 signature : B5F3AA2F
->Track not present in AccurateRip database.
Statistics
Read error : 0
Jitter error (maybe fixed) : 0
Retry sector count : 0
Damaged sector count : 0

No errors occurred

End of status report
Код: Выделить всё
TITLE "The Jazz Workshop Concerts 1964-65 [Disc 4]"
PERFORMER "Charles Mingus"
REM GENRE "Jazz"
REM DATE "2012"
REM DISCNUMBER 4
REM TOTALDISCS 7
REM DISCID 190DE703
REM REPLAYGAIN_ALBUM_GAIN -0.61 dB
REM REPLAYGAIN_ALBUM_PEAK 0.999969
FILE "01 Charles Mingus - Sophisticated Lady (B).flac" WAVE
  TRACK 01 AUDIO
    TITLE "Sophisticated Lady (B)"
    REM REPLAYGAIN_TRACK_GAIN 0.01 dB
    REM REPLAYGAIN_TRACK_PEAK 0.999969
    INDEX 01 00:00:00
FILE "02 Charles Mingus - Meditations On Integration (B).flac" WAVE
  TRACK 02 AUDIO
    TITLE "Meditations On Integration (B)"
    REM REPLAYGAIN_TRACK_GAIN 0.21 dB
    REM REPLAYGAIN_TRACK_PEAK 0.965546
    INDEX 01 00:00:00
FILE "03 Charles Mingus - Fables of Faubus (B).flac" WAVE
  TRACK 03 AUDIO
    TITLE "Fables of Faubus (B)"
    REM REPLAYGAIN_TRACK_GAIN -1.11 dB
    REM REPLAYGAIN_TRACK_PEAK 0.979950
    INDEX 01 00:00:00[pre]
Mingus At Monterey, September 20, 1964

1. Duke Ellington Medley (C) 24:48
a. I Got It Bad (D. Ellington-P.F. Webster) 4:14
b. In A Sentimental Mood (Duke Ellington) 1:46
c. All Too Soon (D. Ellington-C. Sigman) 1:53
d. Mood Indigo (Bigard-Ellington-Mills) 0:59
e. Sophisticated Lady (D. Ellington-M. Parish) 1:46
f. Take The A Train (Billy Stryahorn) 13:54
2. Orange Was The Color Of Her Dress, then Blue Silk (C) 14:47 (Charles Mingus)
3. Meditations On Integration (C) 25:41 (Charles Mingus)
X Lossless Decoder version 20121027 (142.1)

XLD extraction logfile from 2012-11-12 19:00:45 -0600

Charles Mingus / The Jazz Workshop Concerts 1964-65 [Disc 5]

Used drive : MATSHITA DVD-R UJ-898 (revision HC10)

Ripper mode : XLD Secure Ripper
Disable audio cache : OK for the drive with a cache less than 1375KiB
Make use of C2 pointers : NO
Read offset correction : 102
Max retry count : 100
Gap status : Analyzed, Appended

TOC of the extracted CD
Track | Start | Length | Start sector | End sector
---------------------------------------------------------
1 | 00:00:00 | 24:48:05 | 0 | 111604
2 | 24:48:05 | 14:47:03 | 111605 | 178132
3 | 39:35:08 | 25:43:37 | 178133 | 293894

AccurateRip Summary
Disc not found in AccurateRip DB.

All Tracks
Album gain : -6.96 dB
Peak : 1.000000
Statistics
Read error : 0
Jitter error (maybe fixed) : 0
Retry sector count : 0
Damaged sector count : 0

Track 01
Filename : /Users/Bobo/Desktop/Charles Mingus - The Jazz Workshop Concerts 1964-65/Disc 5/01 Charles Mingus - Duke Ellington Medley (C).flac
Pre-gap length : 00:02:00

Track gain : -5.58 dB
Peak : 1.000000
CRC32 hash (test run) : D38A7994
CRC32 hash : D38A7994
CRC32 hash (skip zero) : 9A1EA964
AccurateRip v1 signature : F0B64B19
AccurateRip v2 signature : 44083477
->Track not present in AccurateRip database.
Statistics
Read error : 0
Jitter error (maybe fixed) : 0
Retry sector count : 0
Damaged sector count : 0

Track 02
Filename : /Users/Bobo/Desktop/Charles Mingus - The Jazz Workshop Concerts 1964-65/Disc 5/02 Charles Mingus - Orange Was the Color of Her Dress, Then Blue Silk (C).flac

Track gain : -6.36 dB
Peak : 1.000000
CRC32 hash (test run) : 2FF225DE
CRC32 hash : 2FF225DE
CRC32 hash (skip zero) : 4B4C87C5
AccurateRip v1 signature : 294C1586
AccurateRip v2 signature : 7C6811C5
->Track not present in AccurateRip database.
Statistics
Read error : 0
Jitter error (maybe fixed) : 0
Retry sector count : 0
Damaged sector count : 0

Track 03
Filename : /Users/Bobo/Desktop/Charles Mingus - The Jazz Workshop Concerts 1964-65/Disc 5/03 Charles Mingus - Meditations On Integration (C).flac

Track gain : -8.02 dB
Peak : 1.000000
CRC32 hash (test run) : DDC8A6F9
CRC32 hash : DDC8A6F9
CRC32 hash (skip zero) : 690D1DB5
AccurateRip v1 signature : 5678A7F9
AccurateRip v2 signature : 0C4CD308
->Track not present in AccurateRip database.
Statistics
Read error : 0
Jitter error (maybe fixed) : 0
Retry sector count : 0
Damaged sector count : 0

No errors occurred

End of status report
Код: Выделить всё
TITLE "The Jazz Workshop Concerts 1964-65 [Disc 5]"
PERFORMER "Charles Mingus"
REM GENRE "Jazz"
REM DATE "2012"
REM DISCNUMBER 5
REM TOTALDISCS 7
REM DISCID 230F4E03
REM REPLAYGAIN_ALBUM_GAIN -6.96 dB
REM REPLAYGAIN_ALBUM_PEAK 1.000000
FILE "01 Charles Mingus - Duke Ellington Medley (C).flac" WAVE
  TRACK 01 AUDIO
    TITLE "Duke Ellington Medley (C)"
    REM REPLAYGAIN_TRACK_GAIN -5.58 dB
    REM REPLAYGAIN_TRACK_PEAK 1.000000
    INDEX 01 00:00:00
FILE "02 Charles Mingus - Orange Was the Color of Her Dress, Then Blue Silk (C).flac" WAVE
  TRACK 02 AUDIO
    TITLE "Orange Was the Color of Her Dress, Then Blue Silk (C)"
    REM REPLAYGAIN_TRACK_GAIN -6.36 dB
    REM REPLAYGAIN_TRACK_PEAK 1.000000
    INDEX 01 00:00:00
FILE "03 Charles Mingus - Meditations On Integration (C).flac" WAVE
  TRACK 03 AUDIO
    TITLE "Meditations On Integration (C)"
    REM REPLAYGAIN_TRACK_GAIN -8.02 dB
    REM REPLAYGAIN_TRACK_PEAK 1.000000
    INDEX 01 00:00:00[pre]
Mingus At Monterey, September 18, 1965

1. The Arts Of Tatum And Freddie Webster (E) 9:33 (Charles Mingus)
2. Don’t Let It Happen Here (E) 9:11 (Charles Mingus)
3. They Trespass The Land Of The Sacred Sioux (E) 8:39 (Charles Mingus)
4. When The Saints Go Marching In (E) 4:30 (K.E. Purvis-J.M. Black)

My Favorite Quintet, Minneapolis, May 13, 1965

5. So Long Eric (D) 18:27 (Charles Mingus)
6, Medley (D) 16:04
a. She’s Funny That Way (R. Whiting-N. Moret) 2:00
b. Embraceable You (G. Gershwin-I. Gershwin) 5:00
c. I Can’t Get Started (V. Duke-I. Gershwin) 5:00
d. Ghost Of A Chance With You (V. Young-N. Washington) 2:00
e. Old Portrait (Charles Mingus) 2:04
7. Cocktails For Two (D) 8:14 (A. Johnson-S. Coslow)
X Lossless Decoder version 20121027 (142.1)

XLD extraction logfile from 2012-11-12 19:37:47 -0600

Charles Mingus / The Jazz Workshop Concerts 1964-65 [Disc 6]

Used drive : MATSHITA DVD-R UJ-898 (revision HC10)

Ripper mode : XLD Secure Ripper
Disable audio cache : OK for the drive with a cache less than 1375KiB
Make use of C2 pointers : NO
Read offset correction : 102
Max retry count : 100
Gap status : Analyzed, Appended

TOC of the extracted CD
Track | Start | Length | Start sector | End sector
---------------------------------------------------------
1 | 00:00:00 | 09:44:62 | 0 | 43861
2 | 09:44:62 | 09:22:73 | 43862 | 86084
3 | 19:07:60 | 09:05:24 | 86085 | 126983
4 | 28:13:09 | 04:32:49 | 126984 | 147432
5 | 32:45:58 | 18:27:16 | 147433 | 230473
6 | 51:12:74 | 16:03:61 | 230474 | 302759
7 | 67:16:60 | 08:17:00 | 302760 | 340034

AccurateRip Summary
Disc not found in AccurateRip DB.

All Tracks
Album gain : -4.29 dB
Peak : 1.000000
Statistics
Read error : 0
Jitter error (maybe fixed) : 0
Retry sector count : 0
Damaged sector count : 0

Track 01
Filename : /Users/Bobo/Desktop/Charles Mingus - The Jazz Workshop Concerts 1964-65/Disc 6/01 Charles Mingus - The Arts of Tatum and Freddie Webster (E).flac
Pre-gap length : 00:02:00

Track gain : -5.25 dB
Peak : 0.973755
CRC32 hash (test run) : D878CD2A
CRC32 hash : D878CD2A
CRC32 hash (skip zero) : 7280B7BE
AccurateRip v1 signature : 13ED9937
AccurateRip v2 signature : 2988C15D
->Track not present in AccurateRip database.
Statistics
Read error : 0
Jitter error (maybe fixed) : 0
Retry sector count : 0
Damaged sector count : 0

Track 02
Filename : /Users/Bobo/Desktop/Charles Mingus - The Jazz Workshop Concerts 1964-65/Disc 6/02 Charles Mingus - Don't Let It Happen Here (E).flac

Track gain : -5.27 dB
Peak : 0.962280
CRC32 hash (test run) : 01E4E890
CRC32 hash : 01E4E890
CRC32 hash (skip zero) : 70BAFA14
AccurateRip v1 signature : 633D45F5
AccurateRip v2 signature : 7187381B
->Track not present in AccurateRip database.
Statistics
Read error : 0
Jitter error (maybe fixed) : 0
Retry sector count : 0
Damaged sector count : 0

Track 03
Filename : /Users/Bobo/Desktop/Charles Mingus - The Jazz Workshop Concerts 1964-65/Disc 6/03 Charles Mingus - They Trespass the Land of the Sacred Sioux.flac

Track gain : -5.35 dB
Peak : 0.945862
CRC32 hash (test run) : C38A61B2
CRC32 hash : C38A61B2
CRC32 hash (skip zero) : 74A639EB
AccurateRip v1 signature : 67544E4D
AccurateRip v2 signature : EDFFBDA2
->Track not present in AccurateRip database.
Statistics
Read error : 0
Jitter error (maybe fixed) : 0
Retry sector count : 0
Damaged sector count : 0

Track 04
Filename : /Users/Bobo/Desktop/Charles Mingus - The Jazz Workshop Concerts 1964-65/Disc 6/04 Charles Mingus - When the Saints Go Marching In (E).flac

Track gain : -4.97 dB
Peak : 0.999969
CRC32 hash (test run) : 0A8DA9F9
CRC32 hash : 0A8DA9F9
CRC32 hash (skip zero) : C4F7A226
AccurateRip v1 signature : 03566A31
AccurateRip v2 signature : 038D2B36
->Track not present in AccurateRip database.
Statistics
Read error : 0
Jitter error (maybe fixed) : 0
Retry sector count : 0
Damaged sector count : 0

Track 05
Filename : /Users/Bobo/Desktop/Charles Mingus - The Jazz Workshop Concerts 1964-65/Disc 6/05 Charles Mingus - So Long Eric (D).flac

Track gain : 0.65 dB
Peak : 0.999969
CRC32 hash (test run) : 508813D7
CRC32 hash : 508813D7
CRC32 hash (skip zero) : 702AF820
AccurateRip v1 signature : 9394160B
AccurateRip v2 signature : 1333D39B
->Track not present in AccurateRip database.
Statistics
Read error : 0
Jitter error (maybe fixed) : 0
Retry sector count : 0
Damaged sector count : 0

Track 06
Filename : /Users/Bobo/Desktop/Charles Mingus - The Jazz Workshop Concerts 1964-65/Disc 6/06 Charles Mingus - Medley (D).flac

Track gain : 1.91 dB
Peak : 1.000000
CRC32 hash (test run) : A7D2820C
CRC32 hash : A7D2820C
CRC32 hash (skip zero) : 0349B8D2
AccurateRip v1 signature : 93AD81A0
AccurateRip v2 signature : 277A64EF
->Track not present in AccurateRip database.
Statistics
Read error : 0
Jitter error (maybe fixed) : 0
Retry sector count : 0
Damaged sector count : 0

Track 07
Filename : /Users/Bobo/Desktop/Charles Mingus - The Jazz Workshop Concerts 1964-65/Disc 6/07 Charles Mingus - Cocktails For Two.flac

Track gain : -1.20 dB
Peak : 0.999969
CRC32 hash (test run) : 3841F157
CRC32 hash : 3841F157
CRC32 hash (skip zero) : 16E3562C
AccurateRip v1 signature : 849F6ECF
AccurateRip v2 signature : 3C6F101A
->Track not present in AccurateRip database.
Statistics
Read error : 0
Jitter error (maybe fixed) : 0
Retry sector count : 0
Damaged sector count : 0

No errors occurred

End of status report
Код: Выделить всё
TITLE "The Jazz Workshop Concerts 1964-65 [Disc 6]"
PERFORMER "Charles Mingus"
REM GENRE "Jazz"
REM DATE "2012"
REM DISCNUMBER 6
REM TOTALDISCS 7
REM DISCID 6D11B507
REM REPLAYGAIN_ALBUM_GAIN -4.29 dB
REM REPLAYGAIN_ALBUM_PEAK 1.000000
FILE "01 Charles Mingus - The Arts of Tatum and Freddie Webster (E).flac" WAVE
  TRACK 01 AUDIO
    TITLE "The Arts of Tatum and Freddie Webster (E)"
    REM REPLAYGAIN_TRACK_GAIN -5.25 dB
    REM REPLAYGAIN_TRACK_PEAK 0.973755
    INDEX 01 00:00:00
FILE "02 Charles Mingus - Don't Let It Happen Here (E).flac" WAVE
  TRACK 02 AUDIO
    TITLE "Don't Let It Happen Here (E)"
    REM REPLAYGAIN_TRACK_GAIN -5.27 dB
    REM REPLAYGAIN_TRACK_PEAK 0.962280
    INDEX 01 00:00:00
FILE "03 Charles Mingus - They Trespass the Land of the Sacred Sioux.flac" WAVE
  TRACK 03 AUDIO
    TITLE "They Trespass the Land of the Sacred Sioux"
    REM REPLAYGAIN_TRACK_GAIN -5.35 dB
    REM REPLAYGAIN_TRACK_PEAK 0.945862
    INDEX 01 00:00:00
FILE "04 Charles Mingus - When the Saints Go Marching In (E).flac" WAVE
  TRACK 04 AUDIO
    TITLE "When the Saints Go Marching In (E)"
    REM REPLAYGAIN_TRACK_GAIN -4.97 dB
    REM REPLAYGAIN_TRACK_PEAK 0.999969
    INDEX 01 00:00:00
FILE "05 Charles Mingus - So Long Eric (D).flac" WAVE
  TRACK 05 AUDIO
    TITLE "So Long Eric (D)"
    REM REPLAYGAIN_TRACK_GAIN 0.65 dB
    REM REPLAYGAIN_TRACK_PEAK 0.999969
    INDEX 01 00:00:00
FILE "06 Charles Mingus - Medley (D).flac" WAVE
  TRACK 06 AUDIO
    TITLE "Medley (D)"
    REM REPLAYGAIN_TRACK_GAIN 1.91 dB
    REM REPLAYGAIN_TRACK_PEAK 1.000000
    INDEX 01 00:00:00
FILE "07 Charles Mingus - Cocktails For Two.flac" WAVE
  TRACK 07 AUDIO
    TITLE "Cocktails For Two"
    REM REPLAYGAIN_TRACK_GAIN -1.20 dB
    REM REPLAYGAIN_TRACK_PEAK 0.999969
    INDEX 01 00:00:00[pre]
My Favorite Quintet, Minneapolis, May 13, 1965

1. Announcement (D) 1:06
2. Copa City Titty (aka O.P.) (D) 7:08 (Charles Mingus)
3. A Lonely Day In Selma, Alabama/Freedom (D) 10:46 (Charles Mingus)
4. Peggy’s Blue Skylight (D) 12:31 (Charles Mingus)
5. Mingus Piano Solo (D) 1:58 (Charles Mingus)
6. Announcement #2 (D) 0:58
7. Bird Preamble (D) 17:24 (Charles Mingus)
8. Themeless Blues (D) 15:11 (Charles Mingus)
9. Closing announcement (D) 0:56
X Lossless Decoder version 20121027 (142.1)

XLD extraction logfile from 2012-11-12 20:19:32 -0600

Charles Mingus / The Jazz Workshop Concerts 1964-65 [Disc 7]

Used drive : MATSHITA DVD-R UJ-898 (revision HC10)

Ripper mode : XLD Secure Ripper
Disable audio cache : OK for the drive with a cache less than 1375KiB
Make use of C2 pointers : NO
Read offset correction : 102
Max retry count : 100
Gap status : Analyzed, Appended

TOC of the extracted CD
Track | Start | Length | Start sector | End sector
---------------------------------------------------------
1 | 00:00:00 | 01:06:04 | 0 | 4953
2 | 01:06:04 | 07:09:17 | 4954 | 37145
3 | 08:15:21 | 10:48:46 | 37146 | 85791
4 | 19:03:67 | 12:33:48 | 85792 | 142314
5 | 31:37:40 | 01:57:39 | 142315 | 151128
6 | 33:35:04 | 00:57:65 | 151129 | 155468
7 | 34:32:69 | 17:26:13 | 155469 | 233931
8 | 51:59:07 | 15:10:51 | 233932 | 302232
9 | 67:09:58 | 00:57:65 | 302233 | 306572

AccurateRip Summary
Disc not found in AccurateRip DB.

All Tracks
Album gain : -2.04 dB
Peak : 1.000000
Statistics
Read error : 0
Jitter error (maybe fixed) : 0
Retry sector count : 0
Damaged sector count : 0

Track 01
Filename : /Users/Bobo/Desktop/Charles Mingus - The Jazz Workshop Concerts 1964-65/Disc 7/01 Charles Mingus - Announcement (D).flac
Pre-gap length : 00:02:00

Track gain : 3.59 dB
Peak : 0.987183
CRC32 hash (test run) : 0D356B43
CRC32 hash : 0D356B43
CRC32 hash (skip zero) : 750C8E74
AccurateRip v1 signature : 4AAADB21
AccurateRip v2 signature : FA7784DA
->Track not present in AccurateRip database.
Statistics
Read error : 0
Jitter error (maybe fixed) : 0
Retry sector count : 0
Damaged sector count : 0

Track 02
Filename : /Users/Bobo/Desktop/Charles Mingus - The Jazz Workshop Concerts 1964-65/Disc 7/02 Charles Mingus - Copa City Titty (AKA O.P.) (D).flac

Track gain : -2.99 dB
Peak : 1.000000
CRC32 hash (test run) : DDB631E2
CRC32 hash : DDB631E2
CRC32 hash (skip zero) : 57A62069
AccurateRip v1 signature : D998B17F
AccurateRip v2 signature : B5B5CF1B
->Track not present in AccurateRip database.
Statistics
Read error : 0
Jitter error (maybe fixed) : 0
Retry sector count : 0
Damaged sector count : 0

Track 03
Filename : /Users/Bobo/Desktop/Charles Mingus - The Jazz Workshop Concerts 1964-65/Disc 7/03 Charles Mingus - A Lonely Day in Selma, Alabama/Freedom (D).flac

Track gain : -1.52 dB
Peak : 1.000000
CRC32 hash (test run) : 29132F47
CRC32 hash : 29132F47
CRC32 hash (skip zero) : 183D277D
AccurateRip v1 signature : 71A3E4DC
AccurateRip v2 signature : B9B2C78E
->Track not present in AccurateRip database.
Statistics
Read error : 0
Jitter error (maybe fixed) : 0
Retry sector count : 0
Damaged sector count : 0

Track 04
Filename : /Users/Bobo/Desktop/Charles Mingus - The Jazz Workshop Concerts 1964-65/Disc 7/04 Charles Mingus - Peggy's Blue Skylight (D).flac

Track gain : -1.85 dB
Peak : 0.986481
CRC32 hash (test run) : 1BFDE13D
CRC32 hash : 1BFDE13D
CRC32 hash (skip zero) : 439B520B
AccurateRip v1 signature : 9B85CB37
AccurateRip v2 signature : CF4F5BB0
->Track not present in AccurateRip database.
Statistics
Read error : 0
Jitter error (maybe fixed) : 0
Retry sector count : 0
Damaged sector count : 0

Track 05
Filename : /Users/Bobo/Desktop/Charles Mingus - The Jazz Workshop Concerts 1964-65/Disc 7/05 Charles Mingus - Mingus Piano Solo (D).flac

Track gain : 4.36 dB
Peak : 1.000000
CRC32 hash (test run) : 609CF92A
CRC32 hash : 609CF92A
CRC32 hash (skip zero) : B89071DB
AccurateRip v1 signature : 0C7A89C6
AccurateRip v2 signature : 9C488A64
->Track not present in AccurateRip database.
Statistics
Read error : 0
Jitter error (maybe fixed) : 0
Retry sector count : 0
Damaged sector count : 0

Track 06
Filename : /Users/Bobo/Desktop/Charles Mingus - The Jazz Workshop Concerts 1964-65/Disc 7/06 Charles Mingus - Announcement #2 (D).flac

Track gain : 3.84 dB
Peak : 0.896912
CRC32 hash (test run) : FA0A3047
CRC32 hash : FA0A3047
CRC32 hash (skip zero) : 5ABEE6EB
AccurateRip v1 signature : 1594BEDF
AccurateRip v2 signature : D3F31B85
->Track not present in AccurateRip database.
Statistics
Read error : 0
Jitter error (maybe fixed) : 0
Retry sector count : 0
Damaged sector count : 0

Track 07
Filename : /Users/Bobo/Desktop/Charles Mingus - The Jazz Workshop Concerts 1964-65/Disc 7/07 Charles Mingus - Bird Preamble (D).flac

Track gain : -2.75 dB
Peak : 0.976227
CRC32 hash (test run) : 9B3D9BF8
CRC32 hash : 9B3D9BF8
CRC32 hash (skip zero) : A901C94D
AccurateRip v1 signature : 383398BF
AccurateRip v2 signature : 8BA40AB7
->Track not present in AccurateRip database.
Statistics
Read error : 0
Jitter error (maybe fixed) : 0
Retry sector count : 0
Damaged sector count : 0

Track 08
Filename : /Users/Bobo/Desktop/Charles Mingus - The Jazz Workshop Concerts 1964-65/Disc 7/08 Charles Mingus - Themeless Blues (D).flac

Track gain : -0.71 dB
Peak : 0.904816
CRC32 hash (test run) : 92EC3DF6
CRC32 hash : 92EC3DF6
CRC32 hash (skip zero) : C00A2ACB
AccurateRip v1 signature : 4E76B6EC
AccurateRip v2 signature : C90907DF
->Track not present in AccurateRip database.
Statistics
Read error : 0
Jitter error (maybe fixed) : 0
Retry sector count : 0
Damaged sector count : 0

Track 09
Filename : /Users/Bobo/Desktop/Charles Mingus - The Jazz Workshop Concerts 1964-65/Disc 7/09 Charles Mingus - Closing Announcement (D).flac

Track gain : 2.39 dB
Peak : 0.681793
CRC32 hash (test run) : EA66E10B
CRC32 hash : EA66E10B
CRC32 hash (skip zero) : 4E2C08D9
AccurateRip v1 signature : 8DAF3D99
AccurateRip v2 signature : 6C24A8F6
->Track not present in AccurateRip database.
Statistics
Read error : 0
Jitter error (maybe fixed) : 0
Retry sector count : 0
Damaged sector count : 0

No errors occurred

End of status report
TITLE "The Jazz Workshop Concerts 1964-65 [Disc 7]"
PERFORMER "Charles Mingus"
REM GENRE "Jazz"
REM DATE "2012"
REM DISCNUMBER 7
REM TOTALDISCS 7
REM DISCID 700FF709
REM REPLAYGAIN_ALBUM_GAIN -2.04 dB
REM REPLAYGAIN_ALBUM_PEAK 1.000000
FILE "01 Charles Mingus - Announcement (D).flac" WAVE
TRACK 01 AUDIO
TITLE "Announcement (D)"
REM REPLAYGAIN_TRACK_GAIN 3.59 dB
REM REPLAYGAIN_TRACK_PEAK 0.987183
INDEX 01 00:00:00
FILE "02 Charles Mingus - Copa City Titty (AKA O.P.) (D).flac" WAVE
TRACK 02 AUDIO
TITLE "Copa City Titty (AKA O.P.) (D)"
REM REPLAYGAIN_TRACK_GAIN -2.99 dB
REM REPLAYGAIN_TRACK_PEAK 1.000000
INDEX 01 00:00:00
FILE "03 Charles Mingus - A Lonely Day in Selma, Alabama/Freedom (D).flac" WAVE
TRACK 03 AUDIO
TITLE "A Lonely Day in Selma, Alabama/Freedom (D)"
REM REPLAYGAIN_TRACK_GAIN -1.52 dB
REM REPLAYGAIN_TRACK_PEAK 1.000000
INDEX 01 00:00:00
FILE "04 Charles Mingus - Peggy's Blue Skylight (D).flac" WAVE
TRACK 04 AUDIO
TITLE "Peggy's Blue Skylight (D)"
REM REPLAYGAIN_TRACK_GAIN -1.85 dB
REM REPLAYGAIN_TRACK_PEAK 0.986481
INDEX 01 00:00:00
FILE "05 Charles Mingus - Mingus Piano Solo (D).flac" WAVE
TRACK 05 AUDIO
TITLE "Mingus Piano Solo (D)"
REM REPLAYGAIN_TRACK_GAIN 4.36 dB
REM REPLAYGAIN_TRACK_PEAK 1.000000
INDEX 01 00:00:00
FILE "06 Charles Mingus - Announcement #2 (D).flac" WAVE
TRACK 06 AUDIO
TITLE "Announcement #2 (D)"
REM REPLAYGAIN_TRACK_GAIN 3.84 dB
REM REPLAYGAIN_TRACK_PEAK 0.896912
INDEX 01 00:00:00
FILE "07 Charles Mingus - Bird Preamble (D).flac" WAVE
TRACK 07 AUDIO
TITLE "Bird Preamble (D)"
REM REPLAYGAIN_TRACK_GAIN -2.75 dB
REM REPLAYGAIN_TRACK_PEAK 0.976227
INDEX 01 00:00:00
FILE "08 Charles Mingus - Themeless Blues (D).flac" WAVE
TRACK 08 AUDIO
TITLE "Themeless Blues (D)"
REM REPLAYGAIN_TRACK_GAIN -0.71 dB
REM REPLAYGAIN_TRACK_PEAK 0.904816
INDEX 01 00:00:00
FILE "09 Charles Mingus - Closing Announcement (D).flac" WAVE
TRACK 09 AUDIO
TITLE "Closing Announcement (D)"
REM REPLAYGAIN_TRACK_GAIN 2.39 dB
REM REPLAYGAIN_TRACK_PEAK 0.681793
INDEX 01 00:00:00[pre]
 
Не забывайте говорить Спасибо. Не уходите с раздачи!   
Торрент: Зарегистрирован [24 июл 2014, 03:11] Скачать торрент
Скачать торрент
[ Размер 15.03 КБ / Просмотров 39 ]
Статус:
Проверен
 
.torrent скачан: 1 раз
Хэш: 43d4f4a04ecc54aa95fed80fc95fa5c2b667be0a
Размер: 2.06 ГБ (2 207 524 004 байт)
Стать Автором раздачи
 
 
Раздал: 0 байт
Скачал: 0 байт
Ратио: Inf.
Сообщения: 188877
Зарегистрирован: 14 июн 2014, 20:46


Re: (Post-Bop) Charles Mingus - The Jazz Workshop Concerts 1964-65 [7CD] [Mosaic Records MD7-253] - 2012, FLAC (tracks+.cue), lossless

Сообщение BennyProfane » 18 июл 2019, 08:28

Thanks you soooooooooo much!!
 
Раздал: 218.8 ГБ
Скачал: 99.13 ГБ
Ратио: 2.207
Сообщения: 1
Зарегистрирован: 09 авг 2016, 08:44


  • Похожие торренты
    Ответы
    Просмотры
    Последнее сообщение

Вернуться в Bop (lossless)

Ресурс не предоставляет электронные версии произведений, а занимается лишь коллекционированием и каталогизацией ссылок, присылаемых и публикуемых на форуме нашими читателями. Если вы являетесь правообладателем какого-либо представленного материала и не желаете чтобы ссылка на него находилась в нашем каталоге, свяжитесь с нами и мы незамедлительно удалим её. Файлы для обмена на трекере предоставлены пользователями сайта, и администрация не несёт ответственности за их содержание. Просьба не заливать файлы, защищенные авторскими правами, а также файлы нелегального содержания!
cron