Спросите Синди / Good Advice (2001) WEB-DL-AVC | P

 
 Статистика раздачи 
Размер: 745.86 МБ   |  Зарегистрирован: 11 июл 2019, 23:35   |   .torrent скачан: 0 раз
Сидеров: 1  [ 0 байт/сек ]     Личеров: 0  [ 0 байт/сек ]  
  

Спросите Синди / Good Advice (2001) WEB-DL-AVC | P

Сообщение explosiveone » 12 июл 2019, 00:03

Информация о фильме
Название: Спросите Синди
Оригинальное название: Good Advice
Год выхода: 2001
Жанр: Мелодрама, комедия
Режиссер: Стив Рэш
В ролях: Чарли Шин, Энджи Хэрмон, Дэнис Ричардс, Джон Ловиц, Розанна Аркетт, Эстелль Харрис, Бэрри Ньюман, Лиза Ринна, Джон де Ланси, Франсуаза Сурель

О фильме:
Попав в переплет, биржевой маклер Райан Тернер остался без гроша в кармане, без работы, квартиры, любовницы и девушки. Но Тернер не привык сдаваться!
Он хочет взять реванш и начинает писать в женской газетной колонке «Спросите Синди» от имени сбежавшей подружки. И быстро понимает, что на большинство вопросов просто не способен ответить. Ему приходится включить всю свою изобретательность, чтобы в итоге вернуть утраченное с лихвой!…

Страна: США
Студия: Emmett/Furla/Oasis Films (EFO Films), Evolution Entertainment
Продолжительность: 01:31:49
Перевод: Профессиональный (многоголосый, закадровый) R5 от «West Video»

Файл
Кодек: H.264
Качество: WEB-DL-AVC
Видео: 768x430, 23.976 fps, 1055kb/s
Звук: AAC-HE, 2ch, 80kbps
General
Unique ID : 33231523807470369324471589656354714154 (0x1900289F3DFDDCD43AB152CCA7F5722A)
Complete name : C:UsersПашаDownloadsСпросите Синди.mkv
Format : Matroska
Format version : Version 4
File size : 746 MiB
Duration : 1 h 31 min
Overall bit rate : 1 136 kb/s
Encoded date : UTC 2019-07-11 20:00:08
Writing application : mkvmerge v33.1.0 ('Primrose') 64-bit
Writing library : libebml v1.3.7 + libmatroska v1.5.0
Cover : Yes
Attachments : cover.jpg

Video
ID : 1
Format : AVC
Format/Info : Advanced Video Codec
Format profile : High@L4.1
Format settings : CABAC / 12 Ref Frames
Format settings, CABAC : Yes
Format settings, Reference : 12 frames
Codec ID : V_MPEG4/ISO/AVC
Duration : 1 h 31 min
Bit rate : 1 055 kb/s
Width : 768 pixels
Height : 430 pixels
Display aspect ratio : 16:9
Frame rate mode : Constant
Frame rate : 23.976 (24000/1001) FPS
Color space : YUV
Chroma subsampling : 4:2:0
Bit depth : 8 bits
Scan type : Progressive
Bits/(Pixel*Frame) : 0.133
Stream size : 693 MiB (93%)
Title : Rip by donadar
Writing library : x264 core 157 r2969 d4099dd
Encoding settings : cabac=1 / ref=12 / deblock=1:-1:-1 / analyse=0x3:0x133 / me=umh / subme=10 / psy=1 / psy_rd=1.00:0.15 / mixed_ref=1 / me_range=32 / chroma_me=1 / trellis=2 / 8x8dct=1 / cqm=0 / deadzone=21,11 / fast_pskip=0 / chroma_qp_offset=-3 / threads=8 / lookahead_threads=2 / sliced_threads=0 / nr=0 / decimate=0 / interlaced=0 / bluray_compat=0 / constrained_intra=0 / bframes=12 / b_pyramid=2 / b_adapt=2 / b_bias=0 / direct=3 / weightb=1 / open_gop=0 / weightp=2 / keyint=240 / keyint_min=23 / scenecut=40 / intra_refresh=0 / rc_lookahead=40 / rc=2pass / mbtree=1 / bitrate=1055 / ratetol=1.0 / qcomp=0.60 / qpmin=0 / qpmax=69 / qpstep=4 / cplxblur=20.0 / qblur=0.5 / ip_ratio=1.40 / aq=3:1.00
Language : English
Default : Yes
Forced : No

Audio
ID : 2
Format : AAC LC SBR
Format/Info : Advanced Audio Codec Low Complexity with Spectral Band Replication
Commercial name : HE-AAC
Format settings : Explicit
Codec ID : A_AAC-2
Duration : 1 h 31 min
Bit rate : 78.7 kb/s
Channel(s) : 2 channels
Channel layout : L R
Sampling rate : 48.0 kHz
Frame rate : 23.438 FPS (2048 SPF)
Compression mode : Lossy
Stream size : 51.7 MiB (7%)
Language : Russian
Default : Yes
Forced : No


16+
Релиз от: donadar
 
Не забывайте говорить Спасибо. Не уходите с раздачи!   
Торрент: Зарегистрирован [11 июл 2019, 23:35] Скачать торрент
Скачать торрент
[ Размер 15.43 КБ / Просмотров 0 ]
Статус:
Проверен
 
.torrent скачан: 0 раз
Хэш: cb72e6acaa1e4f13b2744fc7c3e97149eb0cd543
Размер: 745.86 МБ (782 093 162 байт)
Стать Автором раздачи
 
 
Раздал: 100 ГБ
Скачал: 0 байт
Ратио: Seed.
Сообщения: 112664
Зарегистрирован: 09 апр 2015, 22:31


  • Похожие торренты
    Ответы
    Просмотры
    Последнее сообщение

Вернуться в Зарубежные фильмы 2001-2005 года

Ресурс не предоставляет электронные версии произведений, а занимается лишь коллекционированием и каталогизацией ссылок, присылаемых и публикуемых на форуме нашими читателями. Если вы являетесь правообладателем какого-либо представленного материала и не желаете чтобы ссылка на него находилась в нашем каталоге, свяжитесь с нами и мы незамедлительно удалим её. Файлы для обмена на трекере предоставлены пользователями сайта, и администрация не несёт ответственности за их содержание. Просьба не заливать файлы, защищенные авторскими правами, а также файлы нелегального содержания!
cron