Му-Му (1998) DVD9

 
 Статистика раздачи 
Размер: 6.43 ГБ   |  Зарегистрирован: 10 июл 2019, 12:44   |   .torrent скачан: 0 раз
Сидеров: 1  [ 0 байт/сек ]     Личеров: 0  [ 0 байт/сек ]  
  

Му-Му (1998) DVD9

Сообщение aLaVodka » 10 июл 2019, 13:23

Информация о фильме
Название: Му-Му
Год выпуска: 1998
Жанр: Драма, экранизация
Режиссёр: Юрий Грымов
В ролях: Александр Балуев, Людмила Максакова, Ирина Апексимова, Елена Корикова, Владимир Стеклов, Андрей Мартынов, Дмитрий Шевченко, Геннадий Назаров, Раиса Рязанова, Евдокия Вишнякова, Андрей Халимон, Алексей Кравченко, Екатерина Стриженова, Федор Валиков, Галина Демина, Елена Захарова, Вячеслав Молоков, Наталья Потапова, Сергей Рубеко, Инна Сухарева, Наталья Хорохорина, Юрий Чернов, Григорий Маликов

Описание:
Алчный взгляд жаждущей плотской любви стареющей хозяйки останавливается на новом дворнике Герасиме. И не беда, что он глухой и немой, может быть, это даже и к лучшему — не будет болтать лишнего. Но Герасим и не помышляет о любовной интриге со своей госпожой. Он сходу влюбляется в юную очаровательную дворовую девушку Танечку и просит у хозяйки разрешения взять её в жены. Барыня же выдаёт Танюшу замуж за известного пропойцу Капитона и отсылает в дальнюю деревню. Убитый горем Герасим находит утешение в спасённой им маленькой дворняжке, которую он назвал «Му-Му». Но барыня теперь ревнует уже к собачке и требует, чтобы псину Герасим утопил. Тот подчиняется.



Страна: Россия
Продолжительность: 01:36:19
Перевод: Не требуется
Субтитры: Нет

Файл
Качество: DVD9
Видео: MPEG 2, 720x576 (4:3), 25.000 fps, 9 000 Kbps (0.868 bit/pixel)
Аудио: AC-3, 48.0 KHz, 2 ch, 192 Kbps, CBR

*** Дополнительные материалы: Фотогалерея

DVDИнфо:
Title: MU_MU
Size: 6.43 Gb ( 6 739 320,00 KBytes ) - DVD-9
Enabled regions: 1, 2, 3, 4, 5, 6, 7, 8

VTS_01 :
Play Length: 01:36:19+00:00:08
Video: PAL 4:3 (720x576) VBR
Audio:
Russian (Dolby AC3, 2 ch)

* Menus Information *

VIDEO_TS Menu
Video:
PAL 4:3 (720x576) VBR
Russian Language Unit :
Title Menu

VTS_01 Menu
Video:
PAL 4:3 (720x576) VBR
Audio:
Not specified (Dolby AC3, 2 ch)
Russian Language Unit :
Root Menu

МедиаИнфо:
Код: выделить все
Видео
Идентификатор : 224 (0xE0)
Формат : MPEG Video
Версия формата : Version 2
Профиль формата : Main@Main
Параметр BVOP формата : Да
Параметр матрицы формата : Выборочная
Параметр GOP формата : M=3, N=15
Продолжительность : 15 м.
Битрейт : 9000 Кбит/сек
Ширина : 720 пикселей
Высота : 576 пикселей
Соотношение сторон : 4:3
Частота кадров : 25,000 кадров/сек
Стандарт вещания : PAL
Цветовое пространство : YUV
Субдискретизация насыщенности : 4:2:0
Битовая глубина : 8 бит
Тип развёртки : Чересстрочная
Порядок развёртки : Верхнее поле первое
Метод сжатия : С потерями
Бит/(Пиксели*Кадры) : 0.868
Временной код первого кадра : 00:00:09:15
Оригинал временного кода : Group of pictures header
Размер потока : 982 Мбайт (96%)

Аудио
Идентификатор : 189 (0xBD)-128 (0x80)
Формат : AC-3
Формат/Информация : Audio Coding 3
Расширение режима : CM (complete main)
Параметр Endianness формата : Big
Режим смешивания : DVD-Video
Продолжительность : 15 м.
Вид битрейта : Постоянный
Битрейт : 192 Кбит/сек
Каналы : 2 канала
Расположение каналов : Front: L R
Частота : 48,0 КГц
Битовая глубина : 16 бит
Метод сжатия : С потерями
Задержка видео : -80 мс.
Размер потока : 21,0 Мбайт (2%)

Меню
 
Не забывайте говорить Спасибо. Не уходите с раздачи!   
Торрент: Зарегистрирован [10 июл 2019, 12:44] Скачать торрент
Скачать торрент
[ Размер 17.6 КБ / Просмотров 0 ]
Статус:
Проверен
 
.torrent скачан: 0 раз
Хэш: 2a7e295e7201cc80e02046a1fe135b50dd703346
Размер: 6.43 ГБ (6 901 063 680 байт)
Стать Автором раздачи
 
 
Раздал: 100 ГБ
Скачал: 0 байт
Ратио: Seed.
Сообщения: 197188
Зарегистрирован: 09 апр 2015, 20:00


  • Похожие торренты
    Ответы
    Просмотры
    Последнее сообщение

Вернуться в Отечественные фильмы 1992-2000 года

Ресурс не предоставляет электронные версии произведений, а занимается лишь коллекционированием и каталогизацией ссылок, присылаемых и публикуемых на форуме нашими читателями. Если вы являетесь правообладателем какого-либо представленного материала и не желаете чтобы ссылка на него находилась в нашем каталоге, свяжитесь с нами и мы незамедлительно удалим её. Файлы для обмена на трекере предоставлены пользователями сайта, и администрация не несёт ответственности за их содержание. Просьба не заливать файлы, защищенные авторскими правами, а также файлы нелегального содержания!
cron