Суррогаты / Surrogates (2009) WEB-DLRip-AVC | D | Open Matte

 
 Статистика раздачи 
Размер: 2.29 ГБ   |  Зарегистрирован: 14 июн 2019, 23:41   |   .torrent скачан: 0 раз
Сидеров: 1  [ 0 байт/сек ]     Личеров: 0  [ 0 байт/сек ]  
  

Суррогаты / Surrogates (2009) WEB-DLRip-AVC | D | Open Matte

Сообщение explosiveone » 15 июн 2019, 00:26

Информация о фильме
Название: Суррогаты
Оригинальное название: Surrogates
Год выхода: 2009
Жанр: Фантастика, боевик, триллер, комикс
Режиссер: Джонатан Мостоу
В ролях: Брюс Уиллис, Рада Митчелл, Розамунд Пайк, Борис Коджо, Джеймс Джинти, Джеймс Кромуэлл, Винг Рэймс, Джек Ноузуорти, Девин Рэтрей, Майкл Кадлитц, Джеффри Де Серрано, Хелена Мэттссон, Майкл Филлип, Дэнни Ф Смит, Брайан А. Пэрриш, Дженни Элден, Шэйн Дзисек, Эндрю Хэсерлат

О фильме:
Действие разворачивается в будущем, в 2057 году, — когда люди практически перестанут общаться между собой и полностью возложат эту функцию на плечи роботов-заменителей. Они сильнее, моложе, привлекательнее своих обладателей и даже могут быть другого пола. Но находится террорист, начинающий уничтожать идеальных андроидов. Полицейскому Тому Гриру предстоит узнать, какие причины движут злоумышленником, лишающим жизни людей и их марионеток, технически и физически совершенных.



Страна: США,
Студия: Mandeville Films, Road Rebel, Touchstone Pictures, Wintergreen Productions
Продолжительность: 01:28:34
Перевод: Дублированный | Лицензия
Субтитры: Русские (forced, full), английские (full, SDH)

[Файл
Формат: Matroska
Качество: WEB-DLRip-AVC| Open Matte | STARZ
Видео: 1024x576 at 23.976 fps, x264, ~3059 kbps
Аудио: AC3, 6 ch, ~640 kbps - | Русский | -
Формат субтитров: softsub (SRT)

***Релиз от: -=DoMiNo=-

Исходник видео WEB-DL Amazon STARZ (периодически появляется логотип)
Open Matte-версия фильма имеет большее наполнение кадра по сравнению с Blu-ray.

Сравнения => BLU-RAY*****vs*****WEB-DL 1080p
x264 info: frame I:1276 Avg QP:15.51 size: 92836
x264 info: frame P:28686 Avg QP:17.52 size: 30515
x264 info: frame B:97470 Avg QP:19.66 size: 10654
x264 info: consecutive B-frames: 2.6% 3.6% 9.0% 20.9% 18.8% 33.8% 6.2% 2.2% 0.9% 0.2% 0.2% 1.2% 0.3%

General
Unique ID : 115789018853748664707102490785436509196 (0x571C2763A455E40E05383FF236DDA40C)
Complete name : Суррогаты.(2009).WEB-DLRip-AVC.O.M.[-=DoMiNo=-].mkv
Format : Matroska
Format version : Version 4
File size : 2.29 GiB
Duration : 1 h 28 min
Overall bit rate : 3 695 kb/s
Movie name : Суррогаты / Surrogates (2009)
Encoded date : UTC 2019-06-14 20:27:55
Writing application : mkvmerge v34.0.0 ('Sight and Seen') 64-bit
Writing library : libebml v1.3.7 + libmatroska v1.5.0
Attachments : poster / poster

Video
ID : 1
Format : AVC
Format/Info : Advanced Video Codec
Format profile : High@L4.1
Format settings : CABAC / 12 Ref Frames
Format settings, CABAC : Yes
Format settings, Reference : 12 frames
Codec ID : V_MPEG4/ISO/AVC
Duration : 1 h 28 min
Bit rate : 3 059 kb/s
Width : 1 024 pixels
Height : 576 pixels
Display aspect ratio : 16:9
Frame rate mode : Constant
Frame rate : 23.976 (24000/1001) FPS
Color space : YUV
Chroma subsampling : 4:2:0
Bit depth : 8 bits
Scan type : Progressive
Bits/(Pixel*Frame) : 0.216
Stream size : 1.89 GiB (83%)
Title : RIP_BY_-=DoMiNo=-
Writing library : x264 core 157 r2969 d4099dd
Encoding settings : cabac=1 / ref=12 / deblock=1:-3:-3 / analyse=0x3:0x133 / me=umh / subme=11 / psy=1 / psy_rd=1.00:0.00 / mixed_ref=1 / me_range=32 / chroma_me=1 / trellis=2 / 8x8dct=1 / cqm=0 / deadzone=21,11 / fast_pskip=1 / chroma_qp_offset=-2 / threads=6 / lookahead_threads=1 / sliced_threads=0 / nr=0 / decimate=1 / interlaced=0 / bluray_compat=0 / constrained_intra=0 / bframes=12 / b_pyramid=2 / b_adapt=2 / b_bias=0 / direct=3 / weightb=1 / open_gop=0 / weightp=2 / keyint=240 / keyint_min=24 / scenecut=40 / intra_refresh=0 / rc=crf / mbtree=0 / crf=18.0 / qcomp=0.70 / qpmin=0 / qpmax=69 / qpstep=4 / ip_ratio=1.40 / pb_ratio=1.30 / aq=3:0.80
Default : Yes
Forced : No
Color range : Limited
Color primaries : BT.709
Transfer characteristics : BT.709
Matrix coefficients : BT.709

Audio
ID : 2
Format : AC-3
Format/Info : Audio Coding 3
Commercial name : Dolby Digital
Codec ID : A_AC3
Duration : 1 h 28 min
Bit rate mode : Constant
Bit rate : 640 kb/s
Channel(s) : 6 channels
Channel layout : L R C LFE Ls Rs
Sampling rate : 48.0 kHz
Frame rate : 31.250 FPS (1536 SPF)
Bit depth : 16 bits
Compression mode : Lossy
Stream size : 406 MiB (17%)
Title : DUB
Language : Russian
Service kind : Complete Main
Default : Yes
Forced : No

Text #1
ID : 3
Format : UTF-8
Codec ID : S_TEXT/UTF8
Codec ID/Info : UTF-8 Plain Text
Duration : 1 h 18 min
Bit rate : 4 b/s
Count of elements : 51
Stream size : 2.36 KiB (0%)
Title : Forced
Language : Russian
Default : No
Forced : Yes

Text #2
ID : 4
Format : UTF-8
Codec ID : S_TEXT/UTF8
Codec ID/Info : UTF-8 Plain Text
Duration : 1 h 23 min
Bit rate : 73 b/s
Count of elements : 855
Stream size : 45.2 KiB (0%)
Language : Russian
Default : Yes
Forced : No

Text #3
ID : 5
Format : UTF-8
Codec ID : S_TEXT/UTF8
Codec ID/Info : UTF-8 Plain Text
Duration : 1 h 23 min
Bit rate : 46 b/s
Count of elements : 871
Stream size : 28.6 KiB (0%)
Title : ENG
Language : English
Default : No
Forced : No

Text #4
ID : 6
Format : UTF-8
Codec ID : S_TEXT/UTF8
Codec ID/Info : UTF-8 Plain Text
Duration : 1 h 27 min
Bit rate : 52 b/s
Count of elements : 952
Stream size : 33.6 KiB (0%)
Title : English [SDH]
Language : English
Default : No
Forced : No

Menu
00:00:00.000 : :Studio Logos
00:00:30.000 : :Opening credits
00:03:50.000 : :A mysterious murder takes place, club
00:06:49.000 : :FBI investigates the crime scene, street
00:08:24.000 : :Greer & Peters track the surrogates operator, victim's house
00:10:35.000 : :Greer wishes for a vacation with Maggie, home.
00:14:46.000 : :FBI investigates another murder, West San Diego College
00:17:27.000 : :Greer & Peters interrogate Mr. Canter, Canter's house.
00:20:38.000 : :Greer & Peters approach the VSI headquarters for further investigation, VSI headquarters
00:26:00.000 : :FBI agents pursue a new lead, FBI headquarters
00:30:54.000 : :Greer is injured in a scuffle with Strickland, street
00:35:30.000 : :Strickland is caught by the Prophet, Strickland's house
00:37:29.000 : :Stone informs Greer of his suspension, hospital.
00:40:11.000 : :Greer meets Peters as he leaves the hospital, street
00:43:17.000 : :Greer asks Prophet about Strickland, Dread Reservation
00:47:46.000 : :Canter meets Greer & asks about the weapon, car
00:49:48.000 : :Greer tries to convince Maggie to abandon her surrogate, Greer's house
00:54:09.000 : :Hunk hacks Peters' surrogate, Peters' home
00:55:55.000 : :Greer seeks Col. Brendon's help finding the weapon, Brendon's office
00:58:01.000 : :Greer meets with Maggie to clear up the misunderstanding, Maggie's parlor
01:00:39.000 : :Millitary attack Dread Reservation, Dread Reservation
01:02:13.000 : :Greer steal sfiles from Stone's office, FBI headquarters
01:05:27.000 : :Greer finds out what Peters has been up to, car
01:09:31.000 : :Peters abducts Bobby, FBI office
01:11:43.000 : :Greer arrives at Canter's house , Canter's house
01:16:33.000 : :Greer as Peters' surrogate tries to prevent the surrogate operators' deaths, FBI office
01:21:15.000 : :People come out on streets after their surrogates are destroyed, street
01:24:03.000 : :End credits
 
Не забывайте говорить Спасибо. Не уходите с раздачи!   
Торрент: Зарегистрирован [14 июн 2019, 23:41] Скачать торрент
Скачать торрент
[ Размер 12.38 КБ / Просмотров 1 ]
Статус:
Проверен
 
.torrent скачан: 0 раз
Хэш: b45992501f5f24d91b0943662f56d10a475d5e15
Размер: 2.29 ГБ (2 459 942 047 байт)
Стать Автором раздачи
 
 
Раздал: 100 ГБ
Скачал: 0 байт
Ратио: Seed.
Сообщения: 111557
Зарегистрирован: 09 апр 2015, 22:31


  • Похожие торренты
    Ответы
    Просмотры
    Последнее сообщение

Вернуться в Зарубежные фильмы 2006-2010 года

Ресурс не предоставляет электронные версии произведений, а занимается лишь коллекционированием и каталогизацией ссылок, присылаемых и публикуемых на форуме нашими читателями. Если вы являетесь правообладателем какого-либо представленного материала и не желаете чтобы ссылка на него находилась в нашем каталоге, свяжитесь с нами и мы незамедлительно удалим её. Файлы для обмена на трекере предоставлены пользователями сайта, и администрация не несёт ответственности за их содержание. Просьба не заливать файлы, защищенные авторскими правами, а также файлы нелегального содержания!
cron