Видок: Охотник на призраков / Видок: Император Парижа / L'Empereur de Paris (2018) BDRemux 1080p | HDRezka Studio

 
 Статистика раздачи 
Размер: 32.04 ГБ   |  Зарегистрирован: 14 июн 2019, 21:25   |   .torrent скачан: 0 раз
Сидеров: 1  [ 0 байт/сек ]     Личеров: 0  [ 0 байт/сек ]  
  

Видок: Охотник на призраков / Видок: Император Парижа / L'Empereur de Paris (2018) BDRemux 1080p | HDRezka Studio

Сообщение explosiveone » 14 июн 2019, 22:22

Информация о фильме
Название: Видок: Охотник на призраков / Видок: Император Парижа
Оригинальное название: L'Empereur de Paris (The Emperor of Paris)
Год выхода: 2018
Жанр: приключения, история
Режиссер: Жан-Франсуа Рише
В ролях: Ольга Куриленко, Венсан Кассель, Фрейя Мавор, Аугуст Диль, Дени Меноше, Дени Лаван, Фабрис Лукини, Уилльям Скьортино, Джеймс Тьерре, Патрик Шене
О фильме: Реальная история легендарного французского сыщика XIX века Эжена Франсуа Видока. Ловкий преступник и мастер по части побегов из тюрем Видок менял города и профессии, пока не был нанят наполеоновским правительством очистить улицы Парижа от криминала. Зная преступный мир изнутри, Видок стал самым успешным детективом своей эпохи и настоящим Императором Парижа.

Страна: Франция
Продолжительность: 02:00:05
Перевод: Многоголосый закадровый | HDRezka Studio
Файл
Кодек: H.264
Качество: BDRemux 1080p
Видео: AVC, 1920x1080 (16:9), 23.976 fps, 36 Mbps
Аудио 1: AC3, 48.0 KHz, 2 ch, 192 Kbps | RUS (HDRezka Studio)
Аудио 2: DTS-HD MA, 48.0 KHz, 6 ch, 3507 Kbps | FRA (Оригинал)
Субтитры: Английские, французские
General
Unique ID : 67895816743880633560102686662770805937 (0x3314423751174B9EB72E0DAC35FFCCB1)
Complete name : The.Emperor.of.Paris.2018.REMUX.mkv
Format : Matroska
Format version : Version 4 / Version 2
File size : 32.0 GiB
Duration : 2 h 0 min
Overall bit rate mode : Variable
Overall bit rate : 38.2 Mb/s
Encoded date : UTC 2019-06-12 16:52:46
Writing application : mkvmerge v20.0.0 ('I Am The Sun') 64-bit
Writing library : libebml v1.3.5 + libmatroska v1.4.8

Video
ID : 1
Format : AVC
Format/Info : Advanced Video Codec
Format profile : High@L4.1
Format settings : CABAC / 3 Ref Frames
Format settings, CABAC : Yes
Format settings, RefFrames : 3 frames
Codec ID : V_MPEG4/ISO/AVC
Duration : 2 h 0 min
Bit rate mode : Variable
Bit rate : 36.0 Mb/s
Maximum bit rate : 38.0 Mb/s
Width : 1 920 pixels
Height : 1 080 pixels
Display aspect ratio : 16:9
Frame rate mode : Constant
Frame rate : 23.976 (24000/1001) FPS
Color space : YUV
Chroma subsampling : 4:2:0
Bit depth : 8 bits
Scan type : Progressive
Bits/(Pixel*Frame) : 0.724
Stream size : 28.9 GiB (90%)
Writing library : x264 core 146 r2538 121396c
Encoding settings : cabac=1 / ref=4 / deblock=1:-1:-1 / analyse=0x3:0x133 / me=umh / subme=10 / psy=1 / psy_rd=1.00:0.15 / mixed_ref=1 / me_range=24 / chroma_me=1 / trellis=2 / 8x8dct=1 / cqm=0 / deadzone=21,11 / fast_pskip=1 / chroma_qp_offset=-3 / threads=48 / lookahead_threads=4 / sliced_threads=0 / slices=4 / nr=0 / decimate=1 / interlaced=0 / bluray_compat=1 / constrained_intra=0 / bframes=3 / b_pyramid=1 / b_adapt=2 / b_bias=0 / direct=3 / weightb=1 / open_gop=1 / weightp=1 / keyint=24 / keyint_min=1 / scenecut=40 / intra_refresh=0 / rc_lookahead=24 / rc=2pass / mbtree=1 / bitrate=36000 / ratetol=1.0 / qcomp=0.60 / qpmin=0 / qpmax=69 / qpstep=4 / cplxblur=20.0 / qblur=0.5 / vbv_maxrate=38000 / vbv_bufsize=30000 / nal_hrd=vbr / filler=0 / ip_ratio=1.40 / aq=1:1.00
Language : French
Default : Yes
Forced : No
Color range : Limited
Color primaries : BT.709
Transfer characteristics : BT.709
Matrix coefficients : BT.709

Audio #1
ID : 2
Format : AC-3
Format/Info : Audio Coding 3
Codec ID : A_AC3
Duration : 2 h 0 min
Bit rate mode : Constant
Bit rate : 192 kb/s
Channel(s) : 2 channels
Channel positions : Front: L R
Sampling rate : 48.0 kHz
Frame rate : 31.250 FPS (1536 SPF)
Bit depth : 16 bits
Compression mode : Lossy
Stream size : 165 MiB (1%)
Title : MVO HDrezka Studio
Language : Russian
Default : Yes
Forced : No

Audio #2
ID : 3
Format : DTS
Format/Info : Digital Theater Systems
Format profile : MA / Core
Codec ID : A_DTS
Duration : 2 h 0 min
Bit rate mode : Variable / Constant
Bit rate : 3 507 kb/s / 1 509 kb/s
Channel(s) : 6 channels
Channel positions : Front: L C R, Side: L R, LFE
Sampling rate : 48.0 kHz
Frame rate : 93.750 FPS (512 SPF)
Bit depth : 24 bits
Compression mode : Lossless / Lossy
Stream size : 2.94 GiB (9%)
Language : French
Default : No
Forced : No

Text #1
ID : 4
Format : UTF-8
Codec ID : S_TEXT/UTF8
Codec ID/Info : UTF-8 Plain Text
Duration : 1 h 51 min
Bit rate : 37 b/s
Count of elements : 1075
Stream size : 31.1 KiB (0%)
Language : English
Default : No
Forced : No

Text #2
ID : 5
Format : PGS
Muxing mode : zlib
Codec ID : S_HDMV/PGS
Codec ID/Info : Picture based subtitle format used on BDs/HD-DVDs
Duration : 1 h 59 min
Bit rate : 23.8 kb/s
Count of elements : 2818
Stream size : 20.2 MiB (0%)
Language : French
Default : No
Forced : No

Menu
00:00:00.000 : en:Chapter 1
00:10:12.821 : en:Chapter 2
00:19:20.493 : en:Chapter 3
00:30:27.325 : en:Chapter 4
00:41:02.293 : en:Chapter 5
00:54:33.020 : en:Chapter 6
01:06:07.338 : en:Chapter 7
01:15:48.335 : en:Chapter 8
01:23:11.778 : en:Chapter 9
01:32:59.240 : en:Chapter 10
01:42:15.504 : en:Chapter 11
01:54:05.213 : en:Chapter 12
 
Не забывайте говорить Спасибо. Не уходите с раздачи!   
Торрент: Зарегистрирован [14 июн 2019, 21:25] Скачать торрент
Скачать торрент
[ Размер 161.13 КБ / Просмотров 4 ]
Статус:
Проверен
 
.torrent скачан: 0 раз
Хэш: 549f2747fad73b620d9f10bb52b87e045c697793
Размер: 32.04 ГБ (34 404 066 754 байт)
Стать Автором раздачи
 
 
Раздал: 100 ГБ
Скачал: 0 байт
Ратио: Seed.
Сообщения: 112732
Зарегистрирован: 09 апр 2015, 22:31


  • Похожие торренты
    Ответы
    Просмотры
    Последнее сообщение

Вернуться в Зарубежное кино

Ресурс не предоставляет электронные версии произведений, а занимается лишь коллекционированием и каталогизацией ссылок, присылаемых и публикуемых на форуме нашими читателями. Если вы являетесь правообладателем какого-либо представленного материала и не желаете чтобы ссылка на него находилась в нашем каталоге, свяжитесь с нами и мы незамедлительно удалим её. Файлы для обмена на трекере предоставлены пользователями сайта, и администрация не несёт ответственности за их содержание. Просьба не заливать файлы, защищенные авторскими правами, а также файлы нелегального содержания!
cron