Мина / Mine (2016) BDRip-AVC от OlLanDGroup | D

 
 Статистика раздачи 
Размер: 2.03 ГБ   |  Зарегистрирован: 14 июн 2019, 13:27   |   .torrent скачан: 0 раз
Сидеров: 1  [ 0 байт/сек ]     Личеров: 0  [ 0 байт/сек ]  
  

Мина / Mine (2016) BDRip-AVC от OlLanDGroup | D

Сообщение explosiveone » 14 июн 2019, 14:07

Мина / Mine
«Stand Your Ground»



Год выпуска: 2016
Страна: США, Италия, Испания
Производство: Ministero per i Beni e le Attività Culturali, Roxbury Pictures
Жанр: Триллер, боевик, военный

Режиссёр: Фабио Гуальоне, Фабио Резинаро
В ролях: Арми Хаммер, Том Каллен, Аннабелль Уоллис, Джульетт Обри, Джофф Белл, Клинг Дайер

Перевод: Дублированный | [Netflix]
Субтитры: Русские (форс., полные), английские (полные)
Реклама: Отсутствует

Описание: Американский солдат после проваленной миссии оказывается в одиночестве посреди афганской пустыни. Стоя одной ногой на мине, он не может двинуться с места и продолжает бороться за жизнь против песчаных бурь, хищников, собственного отчаяния и страхов.



Качество: BDRip-AVC | BDRemux | Mine.2017.1080p.BluRayRemux.3xRus.Eng_THD.mkv
Продолжительность: 01:46:44

Формат: MKV
Видео кодек: MPEG-4 AVC
Аудио кодек: AC3
Видео: 1024x436 (2.35:1), 23,976 fps, x264 ~1 822 kbps avg, 0.170 bit/pixel
Аудио #1: 48 kHz, AC3 Dolby Digital, 3/2 (L,C,R,l,r) + LFE ch, ~448.00 kbps avg | RUS (Netflix)
Аудио #1: 48 kHz, AC3 Dolby Digital, 3/2 (L,C,R,l,r) + LFE ch, ~448.00 kbps avg | ENG

Дата премьеры (мир): 6 октября 2016
Дата премьеры (РФ):
Цифровой релиз:


Релиз от: Rip by:

Общее
Уникальный идентификатор : 182841124379117860014490949325655028420 (0x898DEB6E3ABB0889D569DFD1945AB2C4)
Полное имя : F:OlLanDGroupMine.2016.BDRip(AVC).OllanDGroup.mkv
Формат : Matroska
Версия формата : Version 4 / Version 2
Размер файла : 2,03 Гбайт
Продолжительность : 1 ч. 46 м.
Общий поток : 2718 Кбит/сек
Название фильма : Mine.2016 #TorpedoUK#
Дата кодирования : UTC 2019-06-14 10:19:01
Программа кодирования : mkvmerge v29.0.0 ('Like It Or Not') 64-bit
Библиотека кодирования : libebml v1.3.6 + libmatroska v1.4.9

Видео
Идентификатор : 1
Формат : AVC
Формат/Информация : Advanced Video Codec
Профиль формата : High@L4.1
Параметр CABAC формата : Да
Параметр ReFrames формата : 10 кадров
Идентификатор кодека : V_MPEG4/ISO/AVC
Продолжительность : 1 ч. 46 м.
Битрейт : 1822 Кбит/сек
Ширина : 1024 пикселя
Высота : 436 пикселей
Соотношение сторон : 2,35:1
Режим частоты кадров : Постоянный
Частота кадров : 23,976 (24000/1001) кадра/сек
Цветовое пространство : YUV
Субдискретизация насыщенности : 4:2:0
Битовая глубина : 8 бит
Тип развёртки : Прогрессивная
Бит/(Пиксели*Кадры) : 0.170
Размер потока : 1,36 Гбайт (67%)
Библиотека кодирования : x264 core 146 r2538 121396c
Настройки программы : cabac=1 / ref=10 / deblock=1:-2:-3 / analyse=0x3:0x113 / me=umh / subme=11 / psy=1 / psy_rd=0.96:0.06 / mixed_ref=1 / me_range=48 / chroma_me=1 / trellis=2 / 8x8dct=1 / cqm=0 / deadzone=21,11 / fast_pskip=1 / chroma_qp_offset=-3 / threads=6 / lookahead_threads=1 / sliced_threads=0 / nr=0 / decimate=1 / interlaced=0 / bluray_compat=0 / constrained_intra=0 / bframes=11 / b_pyramid=2 / b_adapt=2 / b_bias=0 / direct=3 / weightb=1 / open_gop=0 / weightp=2 / keyint=240 / keyint_min=23 / scenecut=40 / intra_refresh=0 / rc_lookahead=40 / rc=2pass / mbtree=0 / bitrate=1822 / ratetol=1.0 / qcomp=0.60 / qpmin=0 / qpmax=69 / qpstep=4 / cplxblur=20.0 / qblur=0.5 / vbv_maxrate=50000 / vbv_bufsize=62500 / nal_hrd=none / filler=0 / ip_ratio=1.40 / pb_ratio=1.30 / aq=1:1.00
Язык : English
Default : Да
Forced : Нет

Аудио #1
Идентификатор : 2
Формат : AC-3
Формат/Информация : Audio Coding 3
Расширение режима : CM (complete main)
Параметр Endianness формата : Big
Идентификатор кодека : A_AC3
Продолжительность : 1 ч. 46 м.
Вид битрейта : Постоянный
Битрейт : 448 Кбит/сек
Каналы : 6 каналов
Расположение каналов : Front: L C R, Side: L R, LFE
Частота : 48,0 КГц
Частота кадров : 31,250 кадров/сек (1536 spf)
Битовая глубина : 16 бит
Метод сжатия : С потерями
Размер потока : 342 Мбайт (16%)
Заголовок : DUB [Netflix]
Язык : Russian
Default : Да
Forced : Нет

Аудио #2
Идентификатор : 3
Формат : AC-3
Формат/Информация : Audio Coding 3
Расширение режима : CM (complete main)
Параметр Endianness формата : Big
Идентификатор кодека : A_AC3
Продолжительность : 1 ч. 46 м.
Вид битрейта : Постоянный
Битрейт : 448 Кбит/сек
Каналы : 6 каналов
Расположение каналов : Front: L C R, Side: L R, LFE
Частота : 48,0 КГц
Частота кадров : 31,250 кадров/сек (1536 spf)
Битовая глубина : 16 бит
Метод сжатия : С потерями
Размер потока : 342 Мбайт (16%)
Заголовок : [Original]
Язык : English
Default : Нет
Forced : Нет

Текст #1
Идентификатор : 4
Формат : UTF-8
Идентификатор кодека : S_TEXT/UTF8
Идентификатор кодека/Информация : UTF-8 Plain Text
Продолжительность : 1 ч. 30 м.
Битрейт : 0 бит/сек
Count of elements : 5
Размер потока : 110 байт (0%)
Заголовок : Forced
Язык : Russian
Default : Да
Forced : Нет

Текст #2
Идентификатор : 5
Формат : UTF-8
Идентификатор кодека : S_TEXT/UTF8
Идентификатор кодека/Информация : UTF-8 Plain Text
Продолжительность : 1 ч. 44 м.
Битрейт : 55 бит/сек
Count of elements : 973
Размер потока : 42,3 Кбайт (0%)
Заголовок : Full
Язык : Russian
Default : Нет
Forced : Нет

Текст #3
Идентификатор : 6
Формат : UTF-8
Идентификатор кодека : S_TEXT/UTF8
Идентификатор кодека/Информация : UTF-8 Plain Text
Продолжительность : 1 ч. 38 м.
Битрейт : 37 бит/сек
Count of elements : 999
Размер потока : 27,3 Кбайт (0%)
Заголовок : Full
Язык : English
Default : Нет
Forced : Нет

Меню
00:00:00.000 : en:00:00:00.000
00:10:35.385 : en:00:10:35.385
00:17:31.050 : en:00:17:31.050
00:25:19.017 : en:00:25:19.017
00:31:34.309 : en:00:31:34.309
00:39:09.180 : en:00:39:09.180
00:46:48.264 : en:00:46:48.264
00:52:24.475 : en:00:52:24.475
00:57:01.501 : en:00:57:01.501
01:06:36.659 : en:01:06:36.659
01:15:22.226 : en:01:15:22.226
01:27:05.137 : en:01:27:05.137
01:43:33.207 : en:01:43:33.207




 
Не забывайте говорить Спасибо. Не уходите с раздачи!   
Торрент: Зарегистрирован [14 июн 2019, 13:27] Скачать торрент
Скачать торрент
[ Размер 11.03 КБ / Просмотров 0 ]
Статус:
Проверен
 
.torrent скачан: 0 раз
Хэш: cfbf803270243f414901359d5d2aee263ff54b39
Размер: 2.03 ГБ (2 176 188 977 байт)
Стать Автором раздачи
 
 
Раздал: 100 ГБ
Скачал: 0 байт
Ратио: Seed.
Сообщения: 111557
Зарегистрирован: 09 апр 2015, 22:31


  • Похожие торренты
    Ответы
    Просмотры
    Последнее сообщение

Вернуться в Зарубежные фильмы 2016-2018 года

Ресурс не предоставляет электронные версии произведений, а занимается лишь коллекционированием и каталогизацией ссылок, присылаемых и публикуемых на форуме нашими читателями. Если вы являетесь правообладателем какого-либо представленного материала и не желаете чтобы ссылка на него находилась в нашем каталоге, свяжитесь с нами и мы незамедлительно удалим её. Файлы для обмена на трекере предоставлены пользователями сайта, и администрация не несёт ответственности за их содержание. Просьба не заливать файлы, защищенные авторскими правами, а также файлы нелегального содержания!
cron