Футбол. Чемпионат мира 2019 до 20 лет / U20 World Cup 2019 Poland. Полуфинал. Украина – Италия [11.06] (2019) WebRip 720р | UKR

 
 Статистика раздачи 
Размер: 2.79 ГБ   |  Зарегистрирован: 12 июн 2019, 00:05   |   .torrent скачан: 0 раз
Сидеров: 1  [ 0 байт/сек ]     Личеров: 0  [ 0 байт/сек ]  
  

Футбол. Чемпионат мира 2019 до 20 лет / U20 World Cup 2019 Poland. Полуфинал. Украина – Италия [11.06] (2019) WebRip 720р | UKR

Сообщение Lester » 12 июн 2019, 01:02

Футбол. Чемпионат мира 2019 до 20 лет / U20 World Cup 2019 Poland. Полуфинал. Украина – Италия


Год выпуска: 11.06.2019
Вид спорта: Футбол
Комментарий: Профессиональный (Денис Босянок)
Язык комментариев: украинский


Описание: Чемпионат мира 2019 до 20 лет / U20 World Cup 2019 Poland. Полуфинал. Украина – Италия


Качество: WebRip 720р
Формат: MPEG-4
Видео кодек: H.264
Аудио кодек: AAC
Видео: MPEG4 Video (H264), 1280x720, (16:9) 25fps, 2795kbps
Аудио: Dolby AAC, 48000Hz, stereo, 192kbps



02:13:30
Украина U-20 - Италия U-20 1: 0
Гол: Булеца, 65.
Предупреждение: Cикан, 1, Попов, 55 - Раньери, 75.
Удален: Попов, 80 (вторая желтая).
General
Complete name : C:Чемпіонат світу FIFA U-20 2019Ukraine vs Italy.mp4
Format : MPEG-4
Format profile : Base Media
Codec ID : isom
File size : 2.79 GiB
Duration : 2h 13mn
Overall bit rate mode : Variable
Overall bit rate : 2 996 Kbps

Video
ID : 1
Format : AVC
Format/Info : Advanced Video Codec
Format profile : High@L4.0
Format settings, CABAC : Yes
Format settings, ReFrames : 1 frame
Codec ID : avc1
Codec ID/Info : Advanced Video Coding
Duration : 2h 13mn
Bit rate mode : Variable
Bit rate : 2 800 Kbps
Width : 1 280 pixels
Height : 720 pixels
Display aspect ratio : 16:9
Frame rate mode : Variable
Frame rate : 25.000 fps
Minimum frame rate : 8.333 fps
Maximum frame rate : 25.000 fps
Color space : YUV
Chroma subsampling : 4:2:0
Bit depth : 8 bits
Scan type : Progressive
Bits/(Pixel*Frame) : 0.122
Stream size : 2.61 GiB (93%)

Audio
ID : 2
Format : AAC
Format/Info : Advanced Audio Codec
Format profile : LC
Codec ID : 40
Duration : 2h 13mn
Source duration : 2h 13mn
Bit rate mode : Variable
Bit rate : 192 Kbps
Maximum bit rate : 293 Kbps
Channel(s) : 2 channels
Channel positions : Front: L R
Sampling rate : 44.1 KHz
Compression mode : Lossy
Delay relative to video : 152ms
Stream size : 183 MiB (6%)
Source stream size : 183 MiB (6%)
mdhd_Duration : 8010002


 
Не забывайте говорить Спасибо. Не уходите с раздачи!   
Торрент: Зарегистрирован [12 июн 2019, 00:05] Скачать торрент
Скачать торрент
[ Размер 14.87 КБ / Просмотров 2 ]
Статус:
Проверен
 
.torrent скачан: 0 раз
Хэш: 36efe6f41092acd5a9622fab5cb641ee676ebb3c
Размер: 2.79 ГБ (2 999 963 788 байт)
Стать Автором раздачи
 
 
Раздал: 100 ГБ
Скачал: 0 байт
Ратио: Seed.
Сообщения: 131043
Зарегистрирован: 09 апр 2015, 23:00


  • Похожие торренты
    Ответы
    Просмотры
    Последнее сообщение

Вернуться в Спорт и здоровье (Спортивные турниры, фильмы и передачи etc)

Ресурс не предоставляет электронные версии произведений, а занимается лишь коллекционированием и каталогизацией ссылок, присылаемых и публикуемых на форуме нашими читателями. Если вы являетесь правообладателем какого-либо представленного материала и не желаете чтобы ссылка на него находилась в нашем каталоге, свяжитесь с нами и мы незамедлительно удалим её. Файлы для обмена на трекере предоставлены пользователями сайта, и администрация не несёт ответственности за их содержание. Просьба не заливать файлы, защищенные авторскими правами, а также файлы нелегального содержания!
cron