Человек-паук и его удивительные друзья / Spider-Man and His Amazing Friends [S01-03] (1981-1983) DVDRip-AVC | P

 
 Статистика раздачи 
Размер: 9.11 ГБ   |  Зарегистрирован: 11 июн 2019, 19:03   |   .torrent скачан: 0 раз
Сидеров: 1  [ 0 байт/сек ]     Личеров: 0  [ 0 байт/сек ]  
  

Человек-паук и его удивительные друзья / Spider-Man and His Amazing Friends [S01-03] (1981-1983) DVDRip-AVC | P

Сообщение Nasty » 11 июн 2019, 20:00

Информация о фильме
Название: Человек-паук и его удивительные друзья
Оригинальное название: Spider-Man and His Amazing Friends
Год выхода: 1981-1983
Жанр: мультсериал, фантастика, приключения
Режиссер: Дон Юрвич / Don Jurwich
В ролях: Дэн Гилвзан, Кэти Гарвер, Фрэнк Уэлкер, Стэн Ли, Дик Тафельд, Джун Форэй, Джон Стефенсон, Нил Росс, Джордж ДиЧенцо, Энн Локхарт

О фильме:
В этом мультсериале Человек-паук создаёт команду из своих друзей для борьбы со злом во всех его проявлениях! Кроме него в команду входят его удивительные друзья — Ледяной Человек и Огненная Звезда. Эта замечательная компания может победить любого злодея…



Страна: США
Студия: Marvel Productions Ltd.
Продолжительность: 00:24:00 (серия)
Перевод: Профессиональный (многоголосый, закадровый) [2x2] (серии 1-2, 4-24), Любительский (одноголосый) (серия 3)

Файл
Кодек: h.264
Качество: DVDip-AVC
Видео: AVC/H264, 600x480 (4:3), 25 fps, 1600-2000 Kbps
Аудио 1: 48 kHz, AC3, 2 ch, 192 kbps, русский
Аудио 2: 48 kHz, AC3, 2 ch, 192 kbps, английский
Субтитры: английские

General
UniqueID : 254341187924618169651254537568473983454 (0xBF5854BBDBF6621ABBE610D753CE29DE)
Complete name : D:Spider-Man and His Amazing Friends DVDRipSpider-Man and His Amazing Friends - 1x01 - The Triumph of the Green Goblin.mkv
Format : Matroska
File size : 406 MiB
Duration : 23mn 57s
Overall bit rate : 2 371 Kbps
Encoded date : UTC 2019-06-10 16:37:14
Writing application : mkvmerge v8.3.0 ('Over the Horizon') 32bit
Writing library : libebml v1.3.1 + libmatroska v1.4.2

Video
ID : 1
Format : AVC
Format/Info : Advanced Video Codec
Format profile : Main@L4.0
Format settings, CABAC : Yes
Format settings, ReFrames : 4 frames
Codec ID : V_MPEG4/ISO/AVC
Duration : 23mn 57s
Bit rate : 1 939 Kbps
Width : 600 pixels
Height : 480 pixels
Display aspect ratio : 4:3
Frame rate : 25.000 fps
Color space : YUV
Chroma subsampling : 4:2:0
Bit depth : 8 bits
Scan type : Progressive
Bits/(Pixel*Frame) : 0.269
Stream size : 332 MiB (82%)
Writing library : x264 core 142 r2479 dd79a61
Encoding settings : cabac=1 / ref=2 / deblock=1:-1:-1 / analyse=0x1:0x111 / me=hex / subme=4 / psy=1 / psy_rd=1.00:0.15 / mixed_ref=0 / me_range=16 / chroma_me=1 / trellis=1 / 8x8dct=0 / cqm=0 / deadzone=21,11 / fast_pskip=1 / chroma_qp_offset=-1 / threads=6 / lookahead_threads=1 / sliced_threads=0 / nr=0 / decimate=1 / interlaced=0 / bluray_compat=0 / constrained_intra=0 / bframes=3 / b_pyramid=2 / b_adapt=1 / b_bias=0 / direct=1 / weightb=1 / open_gop=0 / weightp=1 / keyint=250 / keyint_min=25 / scenecut=40 / intra_refresh=0 / rc_lookahead=20 / rc=crf / mbtree=1 / crf=18.0 / qcomp=0.60 / qpmin=0 / qpmax=69 / qpstep=4 / vbv_maxrate=20000 / vbv_bufsize=25000 / crf_max=0.0 / nal_hrd=none / filler=0 / ip_ratio=1.40 / aq=1:1.00
Color primaries : BT.601 PAL
Transfer characteristics : BT.709
Matrix coefficients : BT.601

Audio #1
ID : 2
Format : AC-3
Format/Info : Audio Coding 3
Mode extension : CM (complete main)
Codec ID : A_AC3
Duration : 23mn 57s
Bit rate mode : Constant
Bit rate : 192 Kbps
Channel(s) : 2 channels
Channel positions : Front: L R
Sampling rate : 48.0 KHz
Bit depth : 16 bits
Compression mode : Lossy
Stream size : 32.9 MiB (8%)
Language : Russian

Audio #2
ID : 3
Format : AC-3
Format/Info : Audio Coding 3
Mode extension : CM (complete main)
Codec ID : A_AC3
Duration : 23mn 57s
Bit rate mode : Constant
Bit rate : 192 Kbps
Channel(s) : 2 channels
Channel positions : Front: L R
Sampling rate : 48.0 KHz
Bit depth : 16 bits
Compression mode : Lossy
Stream size : 32.9 MiB (8%)
Language : English

Text
ID : 4
Format : VobSub
Muxing mode : zlib
Codec ID : S_VOBSUB
Codec ID/Info : The same subtitle format used on DVDs
Language : English
Сезон 1
1.01. The Triumph Of The Green Goblin
1.02. The Crime Of All Centuries
1.03. The Fantastic Mr. Frump!
1.04. Sunfire
1.05. Swarm
1.06. 7 Little Superheroes
1.07. Video-Man
1.08. The Prison Plot
1.09. Spidey Goes Hollywood
1.10. The Vengeance Of Loki!
1.11. Knights And Demons
1.12. Pawns Of The Kingpin
1.13. The Quest Of The Red Skull

Сезон 2
2.01. The Origin Of The Iceman
2.02. A Fire-Star Is Born
2.03. Along Came Spidey

Сезон 3
3.01. Spider-Man Unmasked!
3.02. The Bride Of Dracula!
3.03. The Education Of A Superhero
3.04. Attack Of The Arachnoid
3.05. The Origin Of The Spider-Friends
3.06. Spidey Meets The Girl From Tomorrow
3.07. The X-Men Adventure
3.08. Mission Save The GuardStar
 
Не забывайте говорить Спасибо. Не уходите с раздачи!   
Торрент: Зарегистрирован [11 июн 2019, 19:03] Скачать торрент
Скачать торрент
[ Размер 26.1 КБ / Просмотров 4 ]
Статус:
Проверен
 
.torrent скачан: 0 раз
Хэш: e80e6b1b612eb8f8895c5e4a6c0c681755148290
Размер: 9.11 ГБ (9 777 452 659 байт)
Стать Автором раздачи
 
 
Раздал: 100 ГБ
Скачал: 0 байт
Ратио: Seed.
Сообщения: 39930
Зарегистрирован: 09 апр 2015, 19:56


  • Похожие торренты
    Ответы
    Просмотры
    Последнее сообщение

Вернуться в Мультфильмы и мультсериалы

Ресурс не предоставляет электронные версии произведений, а занимается лишь коллекционированием и каталогизацией ссылок, присылаемых и публикуемых на форуме нашими читателями. Если вы являетесь правообладателем какого-либо представленного материала и не желаете чтобы ссылка на него находилась в нашем каталоге, свяжитесь с нами и мы незамедлительно удалим её. Файлы для обмена на трекере предоставлены пользователями сайта, и администрация не несёт ответственности за их содержание. Просьба не заливать файлы, защищенные авторскими правами, а также файлы нелегального содержания!
cron