13 часов: Тайные солдаты Бенгази / 13 Hours: The Secret Soldiers of Benghazi (2016) UHD BDRemux 2160p от селезень | 4K | HDR | D, A | Лицензия

 
 Статистика раздачи 
Размер: 71.72 ГБ   |  Зарегистрирован: 01 июн 2019, 22:26   |   .torrent скачан: 0 раз
Сидеров: 1  [ 0 байт/сек ]     Личеров: 0  [ 0 байт/сек ]  
  

13 часов: Тайные солдаты Бенгази / 13 Hours: The Secret Soldiers of Benghazi (2016) UHD BDRemux 2160p от селезень | 4K | HDR | D, A | Лицензия

Сообщение explosiveone » 01 июн 2019, 23:18

Информация о фильме
Название: 13 часов: Тайные солдаты Бенгази
Оригинальное название: 13 Hours: The Secret Soldiers of Benghazi
Год выхода: 2016
Жанр: Боевик, триллер, драма, военный
Режиссер: Майкл Бэй
В ролях: Джон Красински, Джеймс Бэдж Дэйл, Пабло Шрайбер, Дэвид Денман, Доминик Фумуса, Макс Мартини, Алексия Бальер, Дэвид Костабайл, Пейман Моаади, Мэтт Летчер



О фильме: 2012 год. Бенгази, Ливия. Группа террористов решает «отпраздновать» события 11 сентября нападением на американское посольство. Шестерке бойцов из элитного спецотряда приказано вмешаться только в крайнем случае. Но когда под угрозой десятки жизней, долг и совесть берут верх над субординацией. И мужественные солдаты без колебаний вступают в бой с яростной группировкой боевиков. Бой, который для всех шестерых, скорее всего, станет последним.

Страна: США
Студия: 3 Arts Entertainment, Dune Films, Latina Pictures
Продолжительность: 02:24:28
Перевод(ы):
#1: Дублированный | Лицензия

#2: Авторский | Гаврилов

Качество: BDRemux 2160p
Видео: 3840x2160 at 23.976 fps, MPEG-H HEVC HDR Video, 64700 kbps avg
Звук:
Аудио #01: 48 kHz, AC3, 5.1, 640 Kbps | Лицензия | RUS |
Аудио #02: 48 kHz, AC3, 5.1, 384 Kbps | Гаврилов | RUS |
Аудио #03: 48 kHz, TrueHD, 7.1, 4642 Kbps | Оригинал | ENG |
Аудио #04: 48 kHz, AC3, 5.1, 640 Kbps | Оригинал | ENG |
Субтитры: Русские (forced, full), английские



General
Unique ID : 144403595293743004947196782848044215937 (0x6CA31EEE68D1D7D8C3ADFB356BFCAE81)
Complete name : F:13.Hours.The.Secret.Soldiers.of.Benghazi.2016.BDREMUX.2160p.HDR.seleZen.mkv
Format : Matroska
Format version : Version 4
File size : 71.7 GiB
Duration : 2 h 24 min
Overall bit rate mode : Variable
Overall bit rate : 71.1 Mb/s
Movie name : 13 Hours: The Secret Soldiers of Benghazi 4K 2016 from селезень
Encoded date : UTC 2019-06-01 18:54:12
Writing application : mkvmerge v33.1.0 ('Primrose') 64-bit
Writing library : libebml v1.3.7 + libmatroska v1.5.0

Video
ID : 1
Format : HEVC
Format/Info : High Efficiency Video Coding
Format profile : Main 10@L5.1@High
HDR format : SMPTE ST 2086, HDR10 compatible
Codec ID : V_MPEGH/ISO/HEVC
Duration : 2 h 24 min
Bit rate : 64.7 Mb/s
Width : 3 840 pixels
Height : 2 160 pixels
Display aspect ratio : 16:9
Frame rate mode : Constant
Frame rate : 23.976 (24000/1001) FPS
Color space : YUV
Chroma subsampling : 4:2:0 (Type 2)
Bit depth : 10 bits
Bits/(Pixel*Frame) : 0.325
Stream size : 65.3 GiB (91%)
Language : English
Default : Yes
Forced : No
Color range : Limited
Color primaries : BT.2020
Transfer characteristics : PQ
Matrix coefficients : BT.2020 non-constant
Mastering display color pri : Display P3
Mastering display luminance : min: 0.0001 cd/m2, max: 1000 cd/m2

Audio #1
ID : 2
Format : AC-3
Format/Info : Audio Coding 3
Commercial name : Dolby Digital
Codec ID : A_AC3
Duration : 2 h 24 min
Bit rate mode : Constant
Bit rate : 640 kb/s
Channel(s) : 6 channels
Channel layout : L R C LFE Ls Rs
Sampling rate : 48.0 kHz
Frame rate : 31.250 FPS (1536 SPF)
Bit depth : 16 bits
Compression mode : Lossy
Stream size : 661 MiB (1%)
Title : Dub [License]
Language : Russian
Service kind : Complete Main
Default : Yes
Forced : Yes

Audio #2
ID : 3
Format : AC-3
Format/Info : Audio Coding 3
Commercial name : Dolby Digital
Codec ID : A_AC3
Duration : 2 h 24 min
Bit rate mode : Constant
Bit rate : 384 kb/s
Channel(s) : 6 channels
Channel layout : L R C LFE Ls Rs
Sampling rate : 48.0 kHz
Frame rate : 31.250 FPS (1536 SPF)
Bit depth : 16 bits
Compression mode : Lossy
Stream size : 397 MiB (1%)
Title : AVO [Gavrilov]
Language : Russian
Service kind : Complete Main
Default : No
Forced : No

Audio #3
ID : 4
Format : MLP FBA 16-ch
Format/Info : Meridian Lossless Packing FBA with 16-channel presentation
Commercial name : Dolby TrueHD with Dolby Atmos
Codec ID : A_TRUEHD
Duration : 2 h 24 min
Bit rate mode : Variable
Bit rate : 4 642 kb/s
Maximum bit rate : 7 500 kb/s
Channel(s) : 8 channels
Channel layout : L R C LFE Ls Rs Lb Rb
Sampling rate : 48.0 kHz
Frame rate : 1 200.000 FPS (40 SPF)
Compression mode : Lossless
Stream size : 4.68 GiB (7%)
Title : Original
Language : English
Default : No
Forced : No
Number of dynamic objects : 11
Bed channel count : 1 channel
Bed channel configuration : LFE

Audio #4
ID : 5
Format : AC-3
Format/Info : Audio Coding 3
Commercial name : Dolby Digital
Codec ID : A_AC3
Duration : 2 h 24 min
Bit rate mode : Constant
Bit rate : 640 kb/s
Channel(s) : 6 channels
Channel layout : L R C LFE Ls Rs
Sampling rate : 48.0 kHz
Frame rate : 31.250 FPS (1536 SPF)
Bit depth : 16 bits
Compression mode : Lossy
Stream size : 661 MiB (1%)
Language : English
Service kind : Complete Main
Default : No
Forced : No

Text #1
ID : 6
Format : UTF-8
Codec ID : S_TEXT/UTF8
Codec ID/Info : UTF-8 Plain Text
Duration : 2 h 16 min
Bit rate : 4 b/s
Count of elements : 59
Stream size : 4.24 KiB (0%)
Title : Forced
Language : Russian
Default : Yes
Forced : Yes

Text #2
ID : 7
Format : UTF-8
Codec ID : S_TEXT/UTF8
Codec ID/Info : UTF-8 Plain Text
Duration : 2 h 23 min
Bit rate : 94 b/s
Count of elements : 1855
Stream size : 99.3 KiB (0%)
Title : Full
Language : Russian
Default : No
Forced : No

Text #3
ID : 8
Format : UTF-8
Codec ID : S_TEXT/UTF8
Codec ID/Info : UTF-8 Plain Text
Duration : 2 h 14 min
Bit rate : 67 b/s
Count of elements : 2095
Stream size : 66.5 KiB (0%)
Title : Full
Language : English
Default : No
Forced : No

Text #4
ID : 9
Format : UTF-8
Codec ID : S_TEXT/UTF8
Codec ID/Info : UTF-8 Plain Text
Duration : 2 h 15 min
Bit rate : 71 b/s
Count of elements : 2252
Stream size : 70.8 KiB (0%)
Title : SDH
Language : English
Default : No
Forced : No

Menu
00:00:00.000 : en:Chapter 01
00:04:46.536 : en:Chapter 02
00:09:00.498 : en:Chapter 03
00:15:30.721 : en:Chapter 04
00:21:11.395 : en:Chapter 05
00:26:47.939 : en:Chapter 06
00:31:21.921 : en:Chapter 07
00:34:19.140 : en:Chapter 08
00:39:35.289 : en:Chapter 09
00:47:11.703 : en:Chapter 10
00:53:58.193 : en:Chapter 11
01:02:26.784 : en:Chapter 12
01:10:02.489 : en:Chapter 13
01:23:01.643 : en:Chapter 14
01:27:10.266 : en:Chapter 15
01:34:49.850 : en:Chapter 16
01:42:35.524 : en:Chapter 17
01:48:07.314 : en:Chapter 18
01:53:46.444 : en:Chapter 19
02:00:22.048 : en:Chapter 20
02:07:18.631 : en:Chapter 21
02:18:24.337 : en:Chapter 22


Релиз:

 
Не забывайте говорить Спасибо. Не уходите с раздачи!   
Торрент: Зарегистрирован [01 июн 2019, 22:26] Скачать торрент
Скачать торрент
[ Размер 90.65 КБ / Просмотров 0 ]
Статус:
Проверен
 
.torrent скачан: 0 раз
Хэш: cb5db2e083ff885b03be9342d55171ab9a70a583
Размер: 71.72 ГБ (77 009 752 051 байт)
Стать Автором раздачи
 
 
Раздал: 100 ГБ
Скачал: 0 байт
Ратио: Seed.
Сообщения: 111557
Зарегистрирован: 09 апр 2015, 22:31


  • Похожие торренты
    Ответы
    Просмотры
    Последнее сообщение

Вернуться в Зарубежные фильмы 2016-2018 года

Ресурс не предоставляет электронные версии произведений, а занимается лишь коллекционированием и каталогизацией ссылок, присылаемых и публикуемых на форуме нашими читателями. Если вы являетесь правообладателем какого-либо представленного материала и не желаете чтобы ссылка на него находилась в нашем каталоге, свяжитесь с нами и мы незамедлительно удалим её. Файлы для обмена на трекере предоставлены пользователями сайта, и администрация не несёт ответственности за их содержание. Просьба не заливать файлы, защищенные авторскими правами, а также файлы нелегального содержания!
cron