Бен-Гур / Ben-Hur (2016) WEB-DLRip-AVC от SuperMin | D | Open Matte

 
 Статистика раздачи 
Размер: 2.58 ГБ   |  Зарегистрирован: 30 май 2019, 18:18   |   .torrent скачан: 0 раз
Сидеров: 1  [ 0 байт/сек ]     Личеров: 0  [ 0 байт/сек ]  
  

Бен-Гур / Ben-Hur (2016) WEB-DLRip-AVC от SuperMin | D | Open Matte

Сообщение explosiveone » 30 май 2019, 19:01

Информация о фильме
Название: Бен-Гур
Оригинальное название: Ben-Hur
Год выпуска: 2016
Жанр: Боевик, Драма, Приключения
Режиссер: Тимур Бекмамбетов
В ролях: Джек Хьюстон, Тоби Кеббелл, Родриго Санторо, Назанин Бониади, Айелет Зурер, Йохан Филип Асбек, София Блэк-Д`Элиа, Морган Фримен, Марван Кензари, Мойзес Ариас

История Бен-Гура, потомка знатного иудейского рода, который был предан своим лучшим другом-римлянином. Проведя много лет в рабстве на римских галерах, Бен-Гур в итоге получает возможность вернуться на родину и отомстить обидчику.



Страна: США
Студия: LightWorkers Media, Metro-Goldwyn-Mayer (MGM), Paramount Pictures
Продолжительность: 02:03:17
Перевод: Дубляж
Файл
Кодек: H.264
Качество: WEB-DLRip-AVC от SuperMin
Видео: 1120x632 (16:9), 2353 kbps, 23.976 fps
Звук: Русский (AC3, 6 ch, 640 Кбит/с)
Субтитры: Русские

General
Unique ID : 116031997900876991575735793586741408350 (0x574AF32E61070D1DF160DCDFF8B7725E)
Complete name : F:Бен-Гур (Open Matte).mkv
Format : Matroska
Format version : Version 4
File size : 2.58 GiB
Duration : 2 h 3 min
Overall bit rate : 2 994 kb/s
Movie name : Бен-Гур / Ben-Hur (2016) (Open Matte) - #LORDKILL#
Encoded date : UTC 2019-05-30 13:55:49
Writing application : mkvmerge v21.0.0 ('Tardigrades Will Inherit The Earth') 64-bit
Writing library : libebml v1.3.5 + libmatroska v1.4.8

Video
ID : 1
Format : AVC
Format/Info : Advanced Video Codec
Format profile : High@L4.1
Format settings : CABAC / 9 Ref Frames
Format settings, CABAC : Yes
Format settings, ReFrames : 9 frames
Codec ID : V_MPEG4/ISO/AVC
Duration : 2 h 3 min
Bit rate : 2 353 kb/s
Width : 1 120 pixels
Height : 632 pixels
Display aspect ratio : 16:9
Frame rate mode : Constant
Frame rate : 23.976 (24000/1001) FPS
Color space : YUV
Chroma subsampling : 4:2:0
Bit depth : 8 bits
Scan type : Progressive
Bits/(Pixel*Frame) : 0.139
Stream size : 2.03 GiB (79%)
Writing library : x264 core 146 r2538 121396c
Encoding settings : cabac=1 / ref=9 / deblock=1:-2:-2 / analyse=0x3:0x113 / me=umh / subme=11 / psy=1 / psy_rd=1.00:0.20 / mixed_ref=1 / me_range=32 / chroma_me=1 / trellis=2 / 8x8dct=1 / cqm=0 / deadzone=21,11 / fast_pskip=0 / chroma_qp_offset=-3 / threads=12 / lookahead_threads=2 / sliced_threads=0 / nr=0 / decimate=1 / interlaced=0 / bluray_compat=0 / constrained_intra=0 / bframes=7 / b_pyramid=2 / b_adapt=2 / b_bias=0 / direct=1 / weightb=1 / open_gop=0 / weightp=2 / keyint=240 / keyint_min=23 / scenecut=40 / intra_refresh=0 / rc=crf / mbtree=0 / crf=20.0 / qcomp=0.60 / qpmin=0 / qpmax=69 / qpstep=4 / ip_ratio=1.40 / pb_ratio=1.30 / aq=1:1.00
Language : English
Default : Yes
Forced : No

Audio
ID : 2
Format : AC-3
Format/Info : Audio Coding 3
Commercial name : Dolby Digital
Codec ID : A_AC3
Duration : 2 h 3 min
Bit rate mode : Constant
Bit rate : 640 kb/s
Channel(s) : 6 channels
Channel layout : L R C LFE Ls Rs
Sampling rate : 48.0 kHz
Frame rate : 31.250 FPS (1536 SPF)
Bit depth : 16 bits
Compression mode : Lossy
Stream size : 564 MiB (21%)
Title : Дубляж - Blu-ray CEE
Language : Russian
Service kind : Complete Main
Default : Yes
Forced : No

Text
ID : 3
Format : UTF-8
Codec ID : S_TEXT/UTF8
Codec ID/Info : UTF-8 Plain Text
Duration : 1 h 57 min
Bit rate : 68 b/s
Count of elements : 1290
Stream size : 59.1 KiB (0%)
Language : Russian
Default : No
Forced : No

Menu
00:00:00.000 : :Chapter 01
00:07:03.881 : :Chapter 02
00:15:42.942 : :Chapter 03
00:19:47.895 : :Chapter 04
00:27:25.852 : :Chapter 05
00:33:09.362 : :Chapter 06
00:41:07.214 : :Chapter 07
00:48:20.063 : :Chapter 08
00:55:21.651 : :Chapter 09
01:05:41.228 : :Chapter 10
01:13:15.891 : :Chapter 11
01:22:26.900 : :Chapter 12
01:31:30.193 : :Chapter 13
01:39:55.656 : :Chapter 14
01:46:30.801 : :Chapter 15
01:53:30.136 : :Chapter 16
02:03:19.100 : :Chapter 17
 
Не забывайте говорить Спасибо. Не уходите с раздачи!   
Торрент: Зарегистрирован [30 май 2019, 18:18] Скачать торрент
Скачать торрент
[ Размер 13.87 КБ / Просмотров 3 ]
Статус:
Проверен
 
.torrent скачан: 0 раз
Хэш: 3413497740bd7ce2f80832272ee58b72663e8550
Размер: 2.58 ГБ (2 768 866 099 байт)
Стать Автором раздачи
 
 
Раздал: 100 ГБ
Скачал: 0 байт
Ратио: Seed.
Сообщения: 112732
Зарегистрирован: 09 апр 2015, 22:31


  • Похожие торренты
    Ответы
    Просмотры
    Последнее сообщение

Вернуться в Зарубежные фильмы 2016-2018 года

Ресурс не предоставляет электронные версии произведений, а занимается лишь коллекционированием и каталогизацией ссылок, присылаемых и публикуемых на форуме нашими читателями. Если вы являетесь правообладателем какого-либо представленного материала и не желаете чтобы ссылка на него находилась в нашем каталоге, свяжитесь с нами и мы незамедлительно удалим её. Файлы для обмена на трекере предоставлены пользователями сайта, и администрация не несёт ответственности за их содержание. Просьба не заливать файлы, защищенные авторскими правами, а также файлы нелегального содержания!
cron