Другой мир: Войны крови / Underworld: Blood Wars (2016) WEB-DLRip 720p от SuperMin | D | Open Matte

 
 Статистика раздачи 
Размер: 3.25 ГБ   |  Зарегистрирован: 28 май 2019, 20:00   |   .torrent скачан: 0 раз
Сидеров: 1  [ 0 байт/сек ]     Личеров: 0  [ 0 байт/сек ]  
  

Другой мир: Войны крови / Underworld: Blood Wars (2016) WEB-DLRip 720p от SuperMin | D | Open Matte

Сообщение explosiveone » 28 май 2019, 20:50

Информация о фильме
Название: Другой мир: Войны крови
Оригинальное название: Underworld: Blood Wars
Год выпуска: 2016
Жанр: Фэнтези, ужасы, боевик
Режиссер: Анна Ферстер
В ролях:Кейт Бекинсейл, Тео Джеймс, Лара Пулвер, Чарльз Дэнс, Тобайас Мензис, Брэдли Джеймс, Алисия Вела-Бэйли, Трент Гарретт, Дэйзи Хэд, Джеймс Фолкнер, Оливер Старк


Вампирша Селин (Кейт Бекинсейл) продолжает свою борьбу против клана ликанов и предавшей её фракции вампиров. Кровавая война двух рас разворачивается с новой силой: каждая из сторон пытается заполучить Селин и её дочь, чтобы использовать их кровь для создания гибрида, способного переломить ход войны и помочь своим хозяевам уничтожить заклятых врагов. Спрятав дочь, Селин намеревается положить конец вечному противостоянию, даже если это будет стоить ей жизни.
Новая часть легендарной фантастической эпопеи «Другой мир: Войны крови» продолжает историю нескончаемой войны между ликанами и вампирами. Кейт Бекинсейл вновь исполнила роль бесстрашного воина-вампира Селин, на которую ведут охоту оба клана.



Страна: США
Студия: Lakeshore Entertainment, Screen Gems, Sketch Films
Продолжительность: 01:31:33
Перевод: Дубляж
Файл
Кодек: H.264
Качество: WEB-DLRip 720 от SuperMin
Видео: 1280x720 (16:9), 3026 kbps, 23.976 fps
Звук: Русский (AC3, 6 ch, 640 Кбит/с)
Английский (AC-3, 6ch, 640 kbps)
Английский (DTS, 6ch, 768 kbps)
Субтитры: Русские, английские

x264 [info]: frame I:1535 Avg QP:16.72 size:105557
x264 [info]: frame P:32696 Avg QP:18.18 size: 32967
x264 [info]: frame B:97458 Avg QP:21.78 size: 8597
x264 [info]: consecutive B-frames: 4.0% 6.2% 10.6% 19.3% 23.0% 30.4% 5.0% 1.5%
x264 [total]: encoded 131689 frames, 7.17 fps, 3026.28 kb/s

General
Unique ID : 43731121046678082654834214175459942590 (0x20E64EBBC36DC6F492810AF6B19AA0BE)
Complete name : H:ФИЛЬМЫДругой Мир. Войны Крови (Open Matte).mkv
Format : Matroska
Format version : Version 4
File size : 3.25 GiB
Duration : 1 h 31 min
Overall bit rate : 5 077 kb/s
Movie name : Другой мир: Войны крови / Underworld: Blood Wars (2016) (Open Matte) - #LORDKILL#
Encoded date : UTC 2019-05-28 16:46:00
Writing application : mkvmerge v21.0.0 ('Tardigrades Will Inherit The Earth') 64-bit
Writing library : libebml v1.3.5 + libmatroska v1.4.8

Video
ID : 1
Format : AVC
Format/Info : Advanced Video Codec
Format profile : High@L4.1
Format settings : CABAC / 9 Ref Frames
Format settings, CABAC : Yes
Format settings, ReFrames : 9 frames
Codec ID : V_MPEG4/ISO/AVC
Duration : 1 h 31 min
Bit rate : 3 026 kb/s
Width : 1 280 pixels
Height : 720 pixels
Display aspect ratio : 16:9
Frame rate mode : Constant
Frame rate : 23.976 (24000/1001) FPS
Color space : YUV
Chroma subsampling : 4:2:0
Bit depth : 8 bits
Scan type : Progressive
Bits/(Pixel*Frame) : 0.137
Stream size : 1.94 GiB (60%)
Writing library : x264 core 146 r2538 121396c
Encoding settings : cabac=1 / ref=9 / deblock=1:-2:-2 / analyse=0x3:0x113 / me=umh / subme=11 / psy=1 / psy_rd=1.00:0.20 / mixed_ref=1 / me_range=32 / chroma_me=1 / trellis=2 / 8x8dct=1 / cqm=0 / deadzone=21,11 / fast_pskip=0 / chroma_qp_offset=-3 / threads=12 / lookahead_threads=2 / sliced_threads=0 / nr=0 / decimate=1 / interlaced=0 / bluray_compat=0 / constrained_intra=0 / bframes=7 / b_pyramid=2 / b_adapt=2 / b_bias=0 / direct=1 / weightb=1 / open_gop=0 / weightp=2 / keyint=240 / keyint_min=23 / scenecut=40 / intra_refresh=0 / rc=crf / mbtree=0 / crf=20.0 / qcomp=0.60 / qpmin=0 / qpmax=69 / qpstep=4 / ip_ratio=1.40 / pb_ratio=1.30 / aq=1:1.00
Language : English
Default : Yes
Forced : No

Audio #1
ID : 2
Format : AC-3
Format/Info : Audio Coding 3
Commercial name : Dolby Digital
Codec ID : A_AC3
Duration : 1 h 31 min
Bit rate mode : Constant
Bit rate : 640 kb/s
Channel(s) : 6 channels
Channel layout : L R C LFE Ls Rs
Sampling rate : 48.0 kHz
Frame rate : 31.250 FPS (1536 SPF)
Bit depth : 16 bits
Compression mode : Lossy
Stream size : 419 MiB (13%)
Title : Дубляж
Language : Russian
Service kind : Complete Main
Default : Yes
Forced : No

Audio #2
ID : 3
Format : AC-3
Format/Info : Audio Coding 3
Commercial name : Dolby Digital
Codec ID : A_AC3
Duration : 1 h 31 min
Bit rate mode : Constant
Bit rate : 640 kb/s
Channel(s) : 6 channels
Channel layout : L R C LFE Ls Rs
Sampling rate : 48.0 kHz
Frame rate : 31.250 FPS (1536 SPF)
Bit depth : 16 bits
Compression mode : Lossy
Stream size : 419 MiB (13%)
Language : English
Service kind : Complete Main
Default : No
Forced : No

Audio #3
ID : 4
Format : DTS
Format/Info : Digital Theater Systems
Codec ID : A_DTS
Duration : 1 h 31 min
Bit rate mode : Constant
Bit rate : 768 kb/s
Channel(s) : 6 channels
Channel layout : C L R Ls Rs LFE
Sampling rate : 48.0 kHz
Frame rate : 93.750 FPS (512 SPF)
Bit depth : 16 bits
Compression mode : Lossy
Stream size : 503 MiB (15%)
Language : English
Default : No
Forced : No

Text #1
ID : 5
Format : UTF-8
Codec ID : S_TEXT/UTF8
Codec ID/Info : UTF-8 Plain Text
Duration : 1 h 30 min
Bit rate : 71 b/s
Count of elements : 837
Stream size : 47.3 KiB (0%)
Language : Russian
Default : No
Forced : No

Text #2
ID : 6
Format : UTF-8
Codec ID : S_TEXT/UTF8
Codec ID/Info : UTF-8 Plain Text
Duration : 1 h 30 min
Bit rate : 42 b/s
Count of elements : 820
Stream size : 27.9 KiB (0%)
Language : English
Default : No
Forced : No

Menu
00:00:00.000 : en:Chapter 1
00:04:30.478 : en:Chapter 2
00:09:25.314 : en:Chapter 3
00:13:59.964 : en:Chapter 4
00:18:56.009 : en:Chapter 5
00:24:27.090 : en:Chapter 6
00:31:15.957 : en:Chapter 7
00:36:26.809 : en:Chapter 8
00:42:17.034 : en:Chapter 9
00:47:37.646 : en:Chapter 10
00:52:22.180 : en:Chapter 11
00:58:59.327 : en:Chapter 12
01:04:31.659 : en:Chapter 13
01:08:52.128 : en:Chapter 14
01:13:47.131 : en:Chapter 15
01:20:08.512 : en:Chapter 16
 
Не забывайте говорить Спасибо. Не уходите с раздачи!   
Торрент: Зарегистрирован [28 май 2019, 20:00] Скачать торрент
Скачать торрент
[ Размер 17.23 КБ / Просмотров 0 ]
Статус:
Проверен
 
.torrent скачан: 0 раз
Хэш: aba9fb983e0b24655f42e9e24df2ceec9fa4d7fe
Размер: 3.25 ГБ (3 486 065 157 байт)
Стать Автором раздачи
 
 
Раздал: 100 ГБ
Скачал: 0 байт
Ратио: Seed.
Сообщения: 111556
Зарегистрирован: 09 апр 2015, 22:31


  • Похожие торренты
    Ответы
    Просмотры
    Последнее сообщение

Вернуться в Зарубежные фильмы 2016-2018 года

Ресурс не предоставляет электронные версии произведений, а занимается лишь коллекционированием и каталогизацией ссылок, присылаемых и публикуемых на форуме нашими читателями. Если вы являетесь правообладателем какого-либо представленного материала и не желаете чтобы ссылка на него находилась в нашем каталоге, свяжитесь с нами и мы незамедлительно удалим её. Файлы для обмена на трекере предоставлены пользователями сайта, и администрация не несёт ответственности за их содержание. Просьба не заливать файлы, защищенные авторскими правами, а также файлы нелегального содержания!
cron