Доктор Стрэндж / Doctor Strange (2016) WEB-DLRip 720p от SuperMin | D | Open Matte

 
 Статистика раздачи 
Размер: 2.64 ГБ   |  Зарегистрирован: 24 май 2019, 18:32   |   .torrent скачан: 0 раз
Сидеров: 1  [ 0 байт/сек ]     Личеров: 0  [ 0 байт/сек ]  
  

Доктор Стрэндж / Doctor Strange (2016) WEB-DLRip 720p от SuperMin | D | Open Matte

Сообщение Lester » 24 май 2019, 18:55

Информация о фильме
Название: Доктор Стрэндж
Оригинальное название: Doctor Strange
Год выпуска: 2016
Жанр: Фантастика, боевик, приключения
Режиссер: Скотт Дерриксон
В ролях: Бенедикт Камбербэтч, Тильда Суинтон, Мадс Миккельсен, Чиветел Эджиофор, Рэйчел МакАдамс, Бенедикт Вонг, Майкл Стулбарг, Бенджамин Брэтт, Скотт Эдкинс, Зара Питиан


Стивен Стрэндж работает нейрохирургом в районной поликлинике. В течение многих лет он успешно избавляет человеческие тела от ненужных им органов и инородных предметов, вытаскивая людей буквально с того света. В результате страшной автокатастрофы доктор получает травмы, несовместимые с его профессиональной деятельностью. Поиски исцеления приводят его в Непал к могущественному мистику. Под ее духовным наставничеством Стрэндж открывает в себе третий глаз и большой талант к издевательствам над пространственно-временным континуумом. Так начинается история Верховного мага Земли и главного защитника планеты от мистических угроз.



Страна: США
Студия: Marvel Studios Inc., Walt Disney Studios Motion Pictures
Продолжительность: 01:50:27
Перевод: Дубляж
Файл
Кодек: H.264
Качество: WEB-DLRip 720 от SuperMin
Видео: 1280x720 (16:9), 2425 kbps, 25.000 fps
Звук: Русский (AC3, 6 ch, 448 Кбит/с) - Дубляж
Английский (AC-3, 6ch, 448 kbps)
Субтитры: Русские (форс., полные), английские

x264 [info]: frame I:1360 Avg QP:16.17 size: 84402
x264 [info]: frame P:41003 Avg QP:18.10 size: 27122
x264 [info]: frame B:123324 Avg QP:21.06 size: 6342
x264 [info]: consecutive B-frames: 3.9% 4.3% 12.7% 17.0% 25.6% 31.8% 3.9% 0.4% 0.5%
x264 [total]: encoded 165687 frames, 4.33 fps, 2425.01 kb/s

General
Unique ID : 14284978365994770939788757155120313296 (0xABF2FCF70124D907F6430F5200A73D0)
Complete name : H:ФИЛЬМЫДоктор Стрэндж (Open Matte).mkv
Format : Matroska
Format version : Version 4
File size : 2.64 GiB
Duration : 1 h 50 min
Overall bit rate : 3 420 kb/s
Movie name : Доктор Стрэндж / Doctor Strange (2016) (Open Matte) - #LORDKILL#
Encoded date : UTC 2019-05-24 15:20:23
Writing application : mkvmerge v21.0.0 ('Tardigrades Will Inherit The Earth') 64-bit
Writing library : libebml v1.3.5 + libmatroska v1.4.8
Cover : Yes
Attachments : The Avengers.psd / cover.jpg

Video
ID : 1
Format : AVC
Format/Info : Advanced Video Codec
Format profile : High@L4.1
Format settings : CABAC / 9 Ref Frames
Format settings, CABAC : Yes
Format settings, ReFrames : 9 frames
Codec ID : V_MPEG4/ISO/AVC
Duration : 1 h 50 min
Bit rate : 2 425 kb/s
Width : 1 280 pixels
Height : 720 pixels
Display aspect ratio : 16:9
Frame rate mode : Constant
Frame rate : 25.000 FPS
Color space : YUV
Chroma subsampling : 4:2:0
Bit depth : 8 bits
Scan type : Progressive
Bits/(Pixel*Frame) : 0.105
Stream size : 1.87 GiB (71%)
Writing library : x264 core 146 r2538 121396c
Encoding settings : cabac=1 / ref=9 / deblock=1:-2:-2 / analyse=0x3:0x113 / me=umh / subme=11 / psy=1 / psy_rd=1.00:0.20 / mixed_ref=1 / me_range=32 / chroma_me=1 / trellis=2 / 8x8dct=1 / cqm=0 / deadzone=21,11 / fast_pskip=0 / chroma_qp_offset=-3 / threads=12 / lookahead_threads=2 / sliced_threads=0 / nr=0 / decimate=1 / interlaced=0 / bluray_compat=0 / constrained_intra=0 / bframes=8 / b_pyramid=2 / b_adapt=2 / b_bias=0 / direct=1 / weightb=1 / open_gop=0 / weightp=2 / keyint=240 / keyint_min=24 / scenecut=40 / intra_refresh=0 / rc=crf / mbtree=0 / crf=20.0 / qcomp=0.60 / qpmin=0 / qpmax=69 / qpstep=4 / ip_ratio=1.40 / pb_ratio=1.30 / aq=1:1.00
Language : English
Default : Yes
Forced : No

Audio #1
ID : 2
Format : AC-3
Format/Info : Audio Coding 3
Commercial name : Dolby Digital
Codec ID : A_AC3
Duration : 1 h 50 min
Bit rate mode : Constant
Bit rate : 448 kb/s
Channel(s) : 6 channels
Channel layout : L R C LFE Ls Rs
Sampling rate : 48.0 kHz
Frame rate : 31.250 FPS (1536 SPF)
Bit depth : 16 bits
Compression mode : Lossy
Stream size : 353 MiB (13%)
Title : Дублированный
Language : Russian
Service kind : Complete Main
Default : Yes
Forced : Yes

Audio #2
ID : 3
Format : AC-3
Format/Info : Audio Coding 3
Commercial name : Dolby Digital
Codec ID : A_AC3
Duration : 1 h 50 min
Bit rate mode : Constant
Bit rate : 448 kb/s
Channel(s) : 6 channels
Channel layout : L R C LFE Ls Rs
Sampling rate : 48.0 kHz
Frame rate : 31.250 FPS (1536 SPF)
Bit depth : 16 bits
Compression mode : Lossy
Stream size : 353 MiB (13%)
Title : English
Language : English
Service kind : Complete Main
Default : No
Forced : No

Text #1
ID : 4
Format : UTF-8
Codec ID : S_TEXT/UTF8
Codec ID/Info : UTF-8 Plain Text
Duration : 1 h 47 min
Bit rate : 76 b/s
Count of elements : 1290
Stream size : 60.5 KiB (0%)
Language : Russian
Default : No
Forced : No

Text #2
ID : 5
Format : UTF-8
Codec ID : S_TEXT/UTF8
Codec ID/Info : UTF-8 Plain Text
Duration : 1 h 49 min
Bit rate : 51 b/s
Count of elements : 1585
Stream size : 41.4 KiB (0%)
Title : English
Language : English
Default : No
Forced : No
 
Не забывайте говорить Спасибо. Не уходите с раздачи!   
Торрент: Зарегистрирован [24 май 2019, 18:32] Скачать торрент
Скачать торрент
[ Размер 14.17 КБ / Просмотров 1 ]
Статус:
Проверен
 
.torrent скачан: 0 раз
Хэш: d973854a9e641269790cfc85d3ee4df6ee8f8a91
Размер: 2.64 ГБ (2 833 313 845 байт)
Стать Автором раздачи
 
 
Раздал: 100 ГБ
Скачал: 0 байт
Ратио: Seed.
Сообщения: 130928
Зарегистрирован: 09 апр 2015, 23:00


  • Похожие торренты
    Ответы
    Просмотры
    Последнее сообщение

Вернуться в Зарубежные фильмы 2016-2018 года

Ресурс не предоставляет электронные версии произведений, а занимается лишь коллекционированием и каталогизацией ссылок, присылаемых и публикуемых на форуме нашими читателями. Если вы являетесь правообладателем какого-либо представленного материала и не желаете чтобы ссылка на него находилась в нашем каталоге, свяжитесь с нами и мы незамедлительно удалим её. Файлы для обмена на трекере предоставлены пользователями сайта, и администрация не несёт ответственности за их содержание. Просьба не заливать файлы, защищенные авторскими правами, а также файлы нелегального содержания!
cron