Слушать в отсеках (1985) DVDRip-AVC от KORSAR

 
 Статистика раздачи 
Размер: 2.53 ГБ   |  Зарегистрирован: 19 май 2019, 16:55   |   .torrent скачан: 0 раз
Сидеров: 1  [ 0 байт/сек ]     Личеров: 0  [ 0 байт/сек ]  
  

Слушать в отсеках (1985) DVDRip-AVC от KORSAR

Сообщение aLaVodka » 19 май 2019, 18:22

Название: Слушать в отсеках
Год выхода: 1985
Жанр: Приключения, Военный
Режиссер: Николай Засеев-Руденко
В ролях: Борис Щербаков, Игорь Старыгин, Кирилл Лавров, Георгий Мартынюк, Виталий Коняев, Степан Старчиков, Вилорий Пащенко, Игорь Слободской, Александр Костылев, Сергей Попович, Анатолий Переверзев, Игорь Черницкий, Александр Ануров

О фильме: Идут учения военно-морского флота. Командир подводной лодки Логинов и командир большого противолодочного корабля Золотницкий становятся условными противниками. Чувствуя ответственность за свои экипажи, командиры демонстрируют высокое мастерство, порядочность и дружескую взаимовыручку.

Страна: СССР
Студия: Киностудия им. Довженко
Продолжительность: 01:06:40 + 01:03:26

Релиз от:

Кодек: х264
Качество: DVDRip-AVC
Видео: MPEG-4 AVC, 706x574@753x574, 2200 Кбит/с
Звук: AC3, 6 ch, 384 Кбит/с, AC3, 2 ch, 192 Кбит/с



Общее
Уникальный идентификатор : 193654644039600417481648182885287753301 (0x91B0871CC1DF33FDA74DFBE138947655)
Полное имя : R:МОИ РИПЫСлушать в отсеках_1985-DVDRip-AVCСлушать в отсеках-1.mkv
Формат : Matroska
Версия формата : Version 2
Размер файла : 1,29 Гбайт
Продолжительность : 1 ч. 6 м.
Общий поток : 2778 Кбит/сек
Дата кодирования : UTC 2016-08-23 20:39:43
Программа кодирования : mkvmerge v5.8.0 ('No Sleep / Pillow') built on Sep 2 2012 15:37:04
Библиотека кодирования : libebml v1.2.3 + libmatroska v1.3.0

Видео
Идентификатор : 1
Формат : AVC
Формат/Информация : Advanced Video Codec
Профиль формата : High@L4.1
Настройки формата : CABAC / 15 Ref Frames
Параметр CABAC формата : Да
Параметр RefFrames формата : 15 кадров
Идентификатор кодека : V_MPEG4/ISO/AVC
Продолжительность : 1 ч. 6 м.
Битрейт : 2200 Кбит/сек
Ширина : 706 пикселей
Высота : 574 пикселя
Соотношение сторон : 4:3
Режим частоты кадров : Постоянный
Частота кадров : 25,000 кадров/сек
Цветовое пространство : YUV
Субдискретизация насыщенности : 4:2:0
Битовая глубина : 8 бит
Тип развёртки : Прогрессивная
Бит/(Пиксели*Кадры) : 0.217
Размер потока : 1024 Мбайт (77%)
Библиотека кодирования : x264 core 148 r2638 7599210
Настройки программы : cabac=1 / ref=15 / deblock=1:-2:-2 / analyse=0x3:0x133 / me=umh / subme=10 / psy=1 / psy_rd=1.02:0.12 / mixed_ref=1 / me_range=32 / chroma_me=1 / trellis=2 / 8x8dct=1 / cqm=0 / deadzone=21,11 / fast_pskip=0 / chroma_qp_offset=-3 / threads=12 / lookahead_threads=3 / sliced_threads=0 / nr=0 / decimate=0 / interlaced=0 / bluray_compat=0 / constrained_intra=0 / bframes=11 / b_pyramid=2 / b_adapt=2 / b_bias=0 / direct=3 / weightb=1 / open_gop=0 / weightp=2 / keyint=250 / keyint_min=25 / scenecut=40 / intra_refresh=0 / rc_lookahead=40 / rc=2pass / mbtree=0 / bitrate=2200 / ratetol=1.0 / qcomp=0.63 / qpmin=0 / qpmax=39 / qpstep=4 / cplxblur=20.0 / qblur=0.5 / vbv_maxrate=50000 / vbv_bufsize=62500 / nal_hrd=none / filler=0 / ip_ratio=1.40 / pb_ratio=1.30 / aq=2:0.90
Язык : English
Default : Да
Forced : Нет
Цветовой диапазон : Limited
Основные цвета : BT.601 PAL
Характеристики трансфера : BT.470 System B/G
Коэффициенты матрицы : BT.470 System B/G

Аудио #1
Идентификатор : 2
Формат : AC-3
Формат/Информация : Audio Coding 3
Коммерческое название : Dolby Digital
Идентификатор кодека : A_AC3
Продолжительность : 1 ч. 6 м.
Вид битрейта : Постоянный
Битрейт : 384 Кбит/сек
Каналы : 6 каналов
ChannelLayout : L R C LFE Ls Rs
Частота : 48,0 КГц
Частота кадров : 31,250 кадров/сек (1536 SPF)
Битовая глубина : 16 бит
Метод сжатия : С потерями
Размер потока : 183 Мбайт (14%)
Язык : Russian
Default : Да
Forced : Нет

Аудио #2
Идентификатор : 3
Формат : AC-3
Формат/Информация : Audio Coding 3
Коммерческое название : Dolby Digital
Идентификатор кодека : A_AC3
Продолжительность : 1 ч. 6 м.
Вид битрейта : Постоянный
Битрейт : 192 Кбит/сек
Каналы : 2 канала
ChannelLayout : L R
Частота : 48,0 КГц
Частота кадров : 31,250 кадров/сек (1536 SPF)
Битовая глубина : 16 бит
Метод сжатия : С потерями
Размер потока : 91,6 Мбайт (7%)
Язык : Russian

Default : Нет
Forced : Нет

Меню
00:00:00.000 : ru:Chapter 1
00:10:00.000 : ru:Chapter 2
00:20:00.000 : ru:Chapter 3
00:30:00.000 : ru:Chapter 4
00:40:00.000 : ru:Chapter 5
00:50:00.000 : ru:Chapter 6
01:00:00.000 : ru:Chapter 7
01:06:40.720 : ru:Chapter 8

 
Не забывайте говорить Спасибо. Не уходите с раздачи!   
Торрент: Зарегистрирован [19 май 2019, 16:55] Скачать торрент
Скачать торрент
[ Размер 13.64 КБ / Просмотров 1 ]
Статус:
Проверен
 
.torrent скачан: 0 раз
Хэш: 10343a3436b80bc118afe14c2ddb8b78be12be34
Размер: 2.53 ГБ (2 711 523 882 байт)
Стать Автором раздачи
 
 
Раздал: 100 ГБ
Скачал: 0 байт
Ратио: Seed.
Сообщения: 195747
Зарегистрирован: 09 апр 2015, 20:00


  • Похожие торренты
    Ответы
    Просмотры
    Последнее сообщение

Вернуться в Кино СССР, Советской России, Российской республики (1917-1991)

Ресурс не предоставляет электронные версии произведений, а занимается лишь коллекционированием и каталогизацией ссылок, присылаемых и публикуемых на форуме нашими читателями. Если вы являетесь правообладателем какого-либо представленного материала и не желаете чтобы ссылка на него находилась в нашем каталоге, свяжитесь с нами и мы незамедлительно удалим её. Файлы для обмена на трекере предоставлены пользователями сайта, и администрация не несёт ответственности за их содержание. Просьба не заливать файлы, защищенные авторскими правами, а также файлы нелегального содержания!
cron