Крах операции Террор (1980) SATRip-AVC от KORSAR

 
 Статистика раздачи 
Размер: 1.39 ГБ   |  Зарегистрирован: 18 май 2019, 21:02   |   .torrent скачан: 0 раз
Сидеров: 1  [ 0 байт/сек ]     Личеров: 0  [ 0 байт/сек ]  
  

Крах операции Террор (1980) SATRip-AVC от KORSAR

Сообщение aLaVodka » 18 май 2019, 22:25

Оригинальное название: Крах операции "Террор"
Год выпуска: 1980
Жанр: исторический
Выпущено: СССР-Польша
Режиссер: Анатолий Бобровский
В ролях: Кшиштоф Хамец, Сергей Шакуров, Елена Цыплакова, Томаш Заливский, Леонид Кулагин, Михаил Погоржельский, Георгий Тараторкин, Андрей Миронов, Игорь Кашинцев, Александр Пороховщиков, Михаил Глузский, Артем Карапетян, Виктор Маркин, Анна Милевская, Зыгмунд Малянович, Марек Фронцковяк, Здислав Шимборский, Виктор Шульгин, Михаил Кокшенов, Алексей Панькин, Йонас Вайткус, Валерий Скоробогатов, Антонина Максимова, Тадеуш Теодорчик

Описание: Остросюжетный историко-революционный фильм о борьбе ВЧК с международным заговором против советской власти в России в начале 1920 годов. О деятельности Ф.Э.Дзержинского, председателя ВЧК, наркома внутренних дел и одновременно - наркома путей сообщения. О работе по реанимации развалившейся промышленности, армии, железных дорог, к которой «железный Феликс» привлекает (кого угрозами, кого уговорами) дореволюционных специалистов-интеллигентов.


Релиз от:

Качество: SATRip-AVC
Видео: MPEG-4 AVC, 1300 Кбит/с, 670x558@744x558
Аудио: AC3, 2 ch, 192 Кбит/с
Продолжительность: 2 x ~ 01:06:00
Язык: Русский



Общее
Уникальный идентификатор : 214326501313391413442025347055149342020 (0xA13DC85D6C46665CA5C1225E240F5D44)
Полное имя : D:DVDКрах операции Террор_1980-SATRip-AVCКрах-1.mkv
Формат : Matroska
Версия формата : Version 2
Размер файла : 708 Мбайт
Продолжительность : 1 ч. 6 м.
Общий поток : 1494 Кбит/сек
Дата кодирования : UTC 2015-04-06 12:20:56
Программа кодирования : mkvmerge v5.8.0 ('No Sleep / Pillow') built on Sep 2 2012 15:37:04
Библиотека кодирования : libebml v1.2.3 + libmatroska v1.3.0

Видео
Идентификатор : 1
Формат : AVC
Формат/Информация : Advanced Video Codec
Профиль формата : High@L4.1
Параметр CABAC формата : Да
Параметр ReFrames формата : 14 кадров
Идентификатор кодека : V_MPEG4/ISO/AVC
Продолжительность : 1 ч. 6 м.
Битрейт : 1300 Кбит/сек
Ширина : 670 пикселей
Высота : 558 пикселей
Соотношение сторон : 4:3
Соотношение сторон в оригинале : 4:3
Режим частоты кадров : Постоянный
Частота кадров : 25,000 кадров/сек
Цветовое пространство : YUV
Субдискретизация насыщенности : 4:2:0
Битовая глубина : 8 бит
Тип развёртки : Прогрессивная
Бит/(Пиксели*Кадры) : 0.139
Размер потока : 603 Мбайт (85%)
Библиотека кодирования : x264 core 142 r2431 ac76440
Настройки программы : cabac=1 / ref=14 / deblock=1:-2:-2 / analyse=0x3:0x133 / me=umh / subme=10 / psy=1 / psy_rd=1.05:0.15 / mixed_ref=1 / me_range=32 / chroma_me=1 / trellis=2 / 8x8dct=1 / cqm=0 / deadzone=21,11 / fast_pskip=0 / chroma_qp_offset=-3 / threads=12 / lookahead_threads=2 / sliced_threads=0 / nr=0 / decimate=0 / interlaced=0 / bluray_compat=0 / constrained_intra=0 / bframes=8 / b_pyramid=2 / b_adapt=2 / b_bias=0 / direct=3 / weightb=1 / open_gop=0 / weightp=2 / keyint=250 / keyint_min=25 / scenecut=40 / intra_refresh=0 / rc=2pass / mbtree=0 / bitrate=1300 / ratetol=1.0 / qcomp=0.65 / qpmin=0 / qpmax=39 / qpstep=4 / cplxblur=20.0 / qblur=0.5 / ip_ratio=1.40 / pb_ratio=1.30 / aq=1:1.00
Язык : English
Default : Да
Forced : Нет
Основные цвета : BT.601 PAL
Характеристики трансфера : BT.470 System B, BT.470 System G
Коэффициенты матрицы : BT.601

Аудио
Идентификатор : 2
Формат : AC-3
Формат/Информация : Audio Coding 3
Расширение режима : CM (complete main)
Параметр Endianness формата : Big
Идентификатор кодека : A_AC3
Продолжительность : 1 ч. 6 м.
Вид битрейта : Постоянный
Битрейт : 192 Кбит/сек
Каналы : 2 канала
Расположение каналов : Front: L R
Частота : 48,0 КГц
Битовая глубина : 16 бит
Метод сжатия : С потерями
Размер потока : 91,0 Мбайт (13%)
Язык : Russian
Default : Да
Forced : Нет

 
Не забывайте говорить Спасибо. Не уходите с раздачи!   
Торрент: Зарегистрирован [18 май 2019, 21:02] Скачать торрент
Скачать торрент
[ Размер 14.87 КБ / Просмотров 1 ]
Статус:
Проверен
 
.torrent скачан: 0 раз
Хэш: 85e319964e28f2bedcc54ce6197a715d52f8cb7c
Размер: 1.39 ГБ (1 492 212 383 байт)
Стать Автором раздачи
 
 
Раздал: 100 ГБ
Скачал: 0 байт
Ратио: Seed.
Сообщения: 196180
Зарегистрирован: 09 апр 2015, 20:00


  • Похожие торренты
    Ответы
    Просмотры
    Последнее сообщение

Вернуться в Кино СССР, Советской России, Российской республики (1917-1991)

Ресурс не предоставляет электронные версии произведений, а занимается лишь коллекционированием и каталогизацией ссылок, присылаемых и публикуемых на форуме нашими читателями. Если вы являетесь правообладателем какого-либо представленного материала и не желаете чтобы ссылка на него находилась в нашем каталоге, свяжитесь с нами и мы незамедлительно удалим её. Файлы для обмена на трекере предоставлены пользователями сайта, и администрация не несёт ответственности за их содержание. Просьба не заливать файлы, защищенные авторскими правами, а также файлы нелегального содержания!
cron