Особое поручение (1957) VHSRip от New-Team

 
 Статистика раздачи 
Размер: 1.09 ГБ   |  Зарегистрирован: 18 май 2019, 19:43   |   .torrent скачан: 0 раз
Сидеров: 1  [ 0 байт/сек ]     Личеров: 0  [ 0 байт/сек ]  
  

Особое поручение (1957) VHSRip от New-Team

Сообщение aLaVodka » 18 май 2019, 21:02

Страна: СССР
Производство: Туркменфильм

Жанр: приключения, история
Год выпуска: 1957
Продолжительность: 01:29:15

Перевод: Не требуется
Cубтитры: нет
Оригинальная аудиодорожка: русский

Режиссер: Евгений Иванов-Барков, Алты Карлиев

В ролях:
Алты Карлиев, Павел Волков, Кулькиши Кульмурадов, Валентина Куценко, Сабира Атаева, Виктор Брежнев, Зоя Степанова, М. Кепбанов, П. Ильясов, Сергей Стеценко, А. Бяшимов, Ата Дурдыев, Аман Курбандурдыев, Павел Стрелин, Ходжоу Аннадурдыев, Назар Бекмиев, Абрам Каратов, Аман Кульмамедов...
Полный список актёров

Описание:
Действие происходит в Туркмении в годы гражданской войны. Алты Мергенов по особому заданию комдива проникает в штаб крупного контрреволюционного соединения, которым командует полковник Савицкий. Ещё до революции Мергенов служил офицером в полку Савицкого и пользовался уважением за свою храбрость. Штаб белых разместился в родном городе Алты. Его невеста, Наташа Лемчук, и друзья юности, с негодованием отворачиваются от "изменника". Правду знает только руководитель подполья рабочий Лемчук, отец Наташи, с которым Мергенов связался для передачи информации. Старая мать Алты становится случайной виновницей провала подпольщиков. Спастись удается только Наташе и ее отцу. Но потом Лемчук погибает в схватке с белыми. Выполнив задание, Мергенов уходит к партизанам...





Источник: VHS
Качество видео: VHSRip
Формат видео: AVI

Видео: 704x528 (4:3), 25,000 кадров/сек, XviD ~ 1547 kbps avg, 0.166 bit/pixel
Аудио: 48 kHz, Dolby Digital AC3 2.0, 192 kbps

Раздача от:
Общее
Полное имя : Osoboe.poruchenie.1957.VHSRip_[New-team]_by_AVP_Studio.avi
Формат : AVI
Формат/Информация : Audio Video Interleave
Размер файла : 1,09 Гбайт
Продолжительность : 1 ч. 29 м.
Общий поток : 1749 Кбит/сек
Программа кодирования : VirtualDubMod 1.5.10.3 | www.virtualdub-fr.org || (build 2550/release)
Библиотека кодирования : VirtualDubMod build 2550/release

Видео
Идентификатор : 0
Формат : MPEG-4 Visual
Профиль формата : Advanced Simple@L5
Параметр BVOP формата : 1
Параметр QPel формата : Нет
Параметр GMC формата : Без точки перехода
Параметр матрицы формата : Выборочная
Идентификатор кодека : XVID
Идентификатор кодека/Подсказка : XviD
Продолжительность : 1 ч. 29 м.
Битрейт : 1547 Кбит/сек
Ширина : 704 пикселя
Высота : 528 пикселей
Соотношение сторон : 4:3
Частота кадров : 25,000 кадров/сек
Цветовое пространство : YUV
Субдискретизация насыщенности : 4:2:0
Битовая глубина : 8 бит
Тип развёртки : Прогрессивная
Метод сжатия : С потерями
Бит/(Пиксели*Кадры) : 0.166
Размер потока : 987 Мбайт (88%)
Библиотека кодирования : XviD 73

Аудио
Идентификатор : 1
Формат : AC-3
Формат/Информация : Audio Coding 3
Расширение режима : CM (complete main)
Параметр Endianness формата : Big
Идентификатор кодека : 2000
Продолжительность : 1 ч. 29 м.
Вид битрейта : Постоянный
Битрейт : 192 Кбит/сек
Каналы : 2 канала
Расположение каналов : Front: L R
Частота : 48,0 КГц
Частота кадров : 31,250 кадров/сек (1536 spf)
Битовая глубина : 16 бит
Метод сжатия : С потерями
Размер потока : 123 Мбайт (11%)
Выравнивание : Разделение по промежуткам
Продолжительность промежутка : 40 мс. (1,00 видеокадр)
Время предзагрузки промежутка : 500 мс


 
Не забывайте говорить Спасибо. Не уходите с раздачи!   
Торрент: Зарегистрирован [18 май 2019, 19:43] Скачать торрент
Скачать торрент
[ Размер 12.25 КБ / Просмотров 0 ]
Статус:
Проверен
 
.torrent скачан: 0 раз
Хэш: 7ffda583c709e3981967ccb5ae20015a53b4a47c
Размер: 1.09 ГБ (1 170 302 976 байт)
Стать Автором раздачи
 
 
Раздал: 100 ГБ
Скачал: 0 байт
Ратио: Seed.
Сообщения: 195747
Зарегистрирован: 09 апр 2015, 20:00


  • Похожие торренты
    Ответы
    Просмотры
    Последнее сообщение

Вернуться в Кино СССР, Советской России, Российской республики (1917-1991)

Ресурс не предоставляет электронные версии произведений, а занимается лишь коллекционированием и каталогизацией ссылок, присылаемых и публикуемых на форуме нашими читателями. Если вы являетесь правообладателем какого-либо представленного материала и не желаете чтобы ссылка на него находилась в нашем каталоге, свяжитесь с нами и мы незамедлительно удалим её. Файлы для обмена на трекере предоставлены пользователями сайта, и администрация не несёт ответственности за их содержание. Просьба не заливать файлы, защищенные авторскими правами, а также файлы нелегального содержания!
cron