Акульи плотины / Dam Sharks (2016) WEB-DLRip от Portablius | P

 
 Статистика раздачи 
Размер: 1.36 ГБ   |  Зарегистрирован: 18 май 2019, 07:45   |   .torrent скачан: 0 раз
Сидеров: 1  [ 0 байт/сек ]     Личеров: 0  [ 0 байт/сек ]  
  

Акульи плотины / Dam Sharks (2016) WEB-DLRip от Portablius | P

Сообщение Lester » 18 май 2019, 08:04

Информация о фильме
Название: Акульи плотины
Оригинальное название: Dam Sharks
Год выхода: 2016
Жанр: Ужасы, фантастика, боевик
Режиссеры: Джеймс Конделик, Джон Конделик
В ролях: Джанелл Бодри, Пейдж Лорен Биллиот, Эштон Бингхэм, Джессика Блэкмор, Кэбби Бордерс, Джейсон Брильянтес, Кори Крэйг, Роберт Крэйгхед, Мишель ДеМон, Энди Эрл

О фильме: Во время корпоративной вылазки на природу компания молодых офисных работников узнаёт, что местная река наводнена прожорливыми бычьими акулами, которые используют части человеческих тел, чтобы строить плотины.



Страна: США
Продолжительность: 01:23:28
Перевод: Профессиональный (многоголосый, закадровый) | ТВ3
Субтитры: нет

Файл
Кодек: XviD
Качество: WEB-DLRip
Видео: 688x384 (1.79:1), 23.976 fps, XviD build 73 ~2131 kbps avg, 0.34 bit/pixel
Звук: 48 kHz, AC3 Dolby Digital, 2/0 (L,R) ch, ~192 kbps

General
Complete name : Dam.Sharks.2016.WEB-DLRip.Portablius.avi
Format : AVI
Format/Info : Audio Video Interleave
File size : 1.36 GiB
Duration : 1 h 23 min
Overall bit rate : 2 333 kb/s
Writing application : VirtualDubMod 1.5.10.3 | www.virtualdub-fr.org || (build 2550/release)
Writing library : VirtualDubMod build 2550/release

Video
ID : 0
Format : MPEG-4 Visual
Format profile : Advanced Simple@L5
Format settings : BVOP1 / Custom Matrix
Format settings, BVOP : 1
Format settings, QPel : No
Format settings, GMC : No warppoints
Format settings, Matrix : Custom
Codec ID : XVID
Codec ID/Hint : XviD
Duration : 1 h 23 min
Bit rate : 2 131 kb/s
Width : 688 pixels
Height : 384 pixels
Display aspect ratio : 16:9
Frame rate : 23.976 (24000/1001) FPS
Color space : YUV
Chroma subsampling : 4:2:0
Bit depth : 8 bits
Scan type : Progressive
Compression mode : Lossy
Bits/(Pixel*Frame) : 0.336
Stream size : 1.24 GiB (91%)
Writing library : XviD 73

Audio
ID : 1
Format : AC-3
Format/Info : Audio Coding 3
Commercial name : Dolby Digital
Codec ID : 2000
Duration : 1 h 23 min
Bit rate mode : Constant
Bit rate : 192 kb/s
Channel(s) : 2 channels
Channel layout : L R
Sampling rate : 48.0 kHz
Frame rate : 31.250 FPS (1536 SPF)
Bit depth : 16 bits
Compression mode : Lossy
Stream size : 115 MiB (8%)
Alignment : Split across interleaves
Interleave, duration : 42 ms (1.00 video frame)
Interleave, preload duratio : 500 ms
Service kind : Complete Main

 
Не забывайте говорить Спасибо. Не уходите с раздачи!   
Торрент: Зарегистрирован [18 май 2019, 07:45] Скачать торрент
Скачать торрент
[ Размер 14.48 КБ / Просмотров 0 ]
Статус:
Проверен
 
.torrent скачан: 0 раз
Хэш: 6ae2ac9e7a374210a607c621e5be842f08ed85b5
Размер: 1.36 ГБ (1 460 191 232 байт)
Стать Автором раздачи
 
 
Раздал: 100 ГБ
Скачал: 0 байт
Ратио: Seed.
Сообщения: 130929
Зарегистрирован: 09 апр 2015, 23:00


  • Похожие торренты
    Ответы
    Просмотры
    Последнее сообщение

Вернуться в Зарубежные фильмы 2016-2018 года

Ресурс не предоставляет электронные версии произведений, а занимается лишь коллекционированием и каталогизацией ссылок, присылаемых и публикуемых на форуме нашими читателями. Если вы являетесь правообладателем какого-либо представленного материала и не желаете чтобы ссылка на него находилась в нашем каталоге, свяжитесь с нами и мы незамедлительно удалим её. Файлы для обмена на трекере предоставлены пользователями сайта, и администрация не несёт ответственности за их содержание. Просьба не заливать файлы, защищенные авторскими правами, а также файлы нелегального содержания!
cron