Адреналин / Crank (2006) UHD BDRemux 2160p от ExKinoRay | 4K | HDR | D

 
 Статистика раздачи 
Размер: 41.06 ГБ   |  Зарегистрирован: 16 май 2019, 08:49   |   .torrent скачан: 0 раз
Сидеров: 1  [ 0 байт/сек ]     Личеров: 0  [ 0 байт/сек ]  
  

Адреналин / Crank (2006) UHD BDRemux 2160p от ExKinoRay | 4K | HDR | D

Сообщение Lester » 16 май 2019, 09:18

Адреналин
Crank
«Есть тысяча способов поднять адреналин... Сегодня ему нужны все!»


Название: Адреналин
Оригинальное название: Crank
Год выпуска: 2006
Жанр: Боевик, триллер, криминал
Выпущено: США, @ radical media, GreeneStreet Films Inc., Lakeshore Entertainment, Lions Gate Films Inc.
Режиссер: Марк Невелдайн, Брайан Тейлор
В ролях: Джейсон Стэйтем, Эми Смарт, Хосе Пабло Кантилльо, Эфрен Рамирез, Дуайт Йоакам, Карлос Санс, Рено Уилсон, Эди Гатеги, Гленн Хоуертон, Джей Ксала, Кион Янг, Валери Рэй Миллер, Юсуф Азами, Лоран Шваар, Дэвид Браун (IV), Дориан Кинги, Мед Аброуз, Дэниэл Стивенс, Уолли Лозаньо, Дэвид Т. Грин, Ив Лосет, Аллен Блумфилд, Стефани Мейс, Честер Беннингтон, Майкл МакЛафферти, Эрл Кэрролл, Брайан Свибел, Дон Смит, Шон Грэхэм, Дэн Каллахан, Ноэль Гульеми, Дэниэл Венегас, Фрэнсис Капра, Фрэнк Блейк, Майкл Дж. Гонзалез, Кен Морено, Трой Робинсон, Эдди Перес, Джастин Ример, Питер Чои, Элизабет Джейн Хон
Продолжительность: 01:27:37
Перевод: Дублированный
Описание:

Наемный убийца Чев узнает, что недоброжелатели отравили его редким китайским ядом и отрава начнет действовать немедленно, как только пульс перестанет биться ниже определенной отметки.

И теперь Чеву нужно успеть сделать все свои дела, попробовать раздобыть противоядие и отомстить своим отравителям в прямом смысле слова впопыхах — стараясь создавать вокруг себя как можно более напряженную обстановку и не расслабляться ни на секунду.



Файл
Контейнер: BDMV
Качество: Blu-Ray (2160p)
Видео: HEVC, 60 Мбит/с, 3840x2160, 23.976 кадр/с

Аудио #1: AC-3, 48.0 kHz, 6 ch, 448 kb/s, CBR (Russian) | Дублированный |
Аудио #2: TrueHD TrueHD+Atmos / TrueHD, / 48.0 kHz, Object Based / 8 ch, 5 906 kb/s, VBR (English)
Аудио #3: AC-3, 48.0 kHz, 6 ch, 640 kb/s, CBR (English)






Общее
Уникальный идентификатор : 207560752964364824062245557188578881745 (0x9C26BF378C96F330F0C1E483EE81B0D1)
Полное имя : Crank.2006.2160p.UHD.BDRemux.HDR.HEVC.IVA(RUS.ENG).ExKinoRay.mkv
Формат : Matroska
Версия формата : Version 4
Размер файла : 41,1 Гбайт
Продолжительность : 1 ч. 27 м.
Режим общего битрейта : Переменный
Общий поток : 67,1 Мбит/сек
Название фильма : Адреналин / Crank (2006) UHD BDRemux | HDR, 4K | IVA(RUS.ENG) | ExKinoRay
Дата кодирования : UTC 2019-05-16 03:45:44
Программа кодирования : mkvmerge v33.1.0 ('Primrose') 64-bit
Библиотека кодирования : libebml v1.3.7 + libmatroska v1.5.0
Обложка : Yes
Attachments : cover

Видео
Идентификатор : 1
Формат : HEVC
Формат/Информация : High Efficiency Video Coding
Профиль формата : Main 10@L5.1@High
HDR_Format : SMPTE ST 2086, HDR10 compatible
Идентификатор кодека : V_MPEGH/ISO/HEVC
Продолжительность : 1 ч. 27 м.
Битрейт : 60,0 Мбит/сек
Ширина : 3840 пикселей
Высота : 2160 пикселей
Соотношение сторон : 16:9
Режим частоты кадров : Постоянный
Частота кадров : 23,976 (24000/1001) кадра/сек
Цветовое пространство : YUV
Субдискретизация насыщенности : 4:2:0 (Type 2)
Битовая глубина : 10 бит
Бит/(Пиксели*Кадры) : 0.302
Размер потока : 36,7 Гбайт (89%)
Заголовок : 2160p.UHD.BDRemux.HDR.HEVC
Язык : English
Default : Да
Forced : Нет
Цветовой диапазон : Limited
Основные цвета : BT.2020
Характеристики трансфера : PQ
Коэффициенты матрицы : BT.2020 non-constant
MasteringDisplay_ColorPrimaries : Display P3
MasteringDisplay_Luminance : min: 0.0001 cd/m2, max: 1000 cd/m2
MaxCLL : 732 cd/m2
MaxFALL : 213 cd/m2

Аудио #1
Идентификатор : 2
Формат : AC-3
Формат/Информация : Audio Coding 3
Коммерческое название : Dolby Digital
Идентификатор кодека : A_AC3
Продолжительность : 1 ч. 27 м.
Вид битрейта : Постоянный
Битрейт : 448 Кбит/сек
Каналы : 6 каналов
ChannelLayout : L R C LFE Ls Rs
Частота : 48,0 КГц
Частота кадров : 31,250 кадров/сек (1536 SPF)
Битовая глубина : 16 бит
Метод сжатия : С потерями
Размер потока : 281 Мбайт (1%)
Заголовок : | Дублированный |
Язык : Russian
ServiceKind : Complete Main
Default : Да
Forced : Нет

Аудио #2
Идентификатор : 3
Формат : MLP FBA 16-ch
Формат/Информация : Meridian Lossless Packing FBA with 16-channel presentation
Коммерческое название : Dolby TrueHD with Dolby Atmos
Идентификатор кодека : A_TRUEHD
Продолжительность : 1 ч. 27 м.
Вид битрейта : Переменный
Битрейт : 5906 Кбит/сек
Максимальный битрейт : 8640 Кбит/сек
Каналы : 8 каналов
ChannelLayout : L R C LFE Ls Rs Lb Rb
Частота : 48,0 КГц
Частота кадров : 1200,000 кадров/сек (40 SPF)
Метод сжатия : Без потерь
Размер потока : 3,61 Гбайт (9%)
Заголовок : | Original |
Язык : English
Default : Нет
Forced : Нет
NumberOfDynamicObjects : 13
BedChannelCount : 1 канал
BedChannelConfiguration : LFE

Аудио #3
Идентификатор : 4
Формат : AC-3
Формат/Информация : Audio Coding 3
Коммерческое название : Dolby Digital
Идентификатор кодека : A_AC3
Продолжительность : 1 ч. 27 м.
Вид битрейта : Постоянный
Битрейт : 640 Кбит/сек
Каналы : 6 каналов
ChannelLayout : L R C LFE Ls Rs
Частота : 48,0 КГц
Частота кадров : 31,250 кадров/сек (1536 SPF)
Битовая глубина : 16 бит
Метод сжатия : С потерями
Размер потока : 401 Мбайт (1%)
Заголовок : | Original, AC3 Core |
Язык : English
ServiceKind : Complete Main
Default : Нет
Forced : Нет

Текст #1
Идентификатор : 5
Формат : UTF-8
Идентификатор кодека : S_TEXT/UTF8
Идентификатор кодека/Информация : UTF-8 Plain Text
Продолжительность : 1 ч. 19 м.
Битрейт : 85 бит/сек
ElementCount : 1170
Размер потока : 50,2 Кбайт (0%)
Заголовок : Full [sunny-sko]
Язык : Russian
Default : Нет
Forced : Нет

Текст #2
Идентификатор : 6
Формат : UTF-8
Идентификатор кодека : S_TEXT/UTF8
Идентификатор кодека/Информация : UTF-8 Plain Text
Продолжительность : 1 ч. 19 м.
Битрейт : 54 бит/сек
ElementCount : 973
Размер потока : 31,5 Кбайт (0%)
Заголовок : Full
Язык : English
Default : Нет
Forced : Нет

Меню
00:00:00.000 : :Глава 01
00:04:45.410 : :Глава 02
00:07:54.515 : :Глава 03
00:13:47.076 : :Глава 04
00:21:17.985 : :Глава 05
00:23:52.597 : :Глава 06
00:28:39.008 : :Глава 07
00:35:01.682 : :Глава 08
00:39:15.519 : :Глава 09
00:45:54.543 : :Глава 10
00:52:32.357 : :Глава 11
00:54:30.475 : :Глава 12
01:01:33.564 : :Глава 13
01:04:41.752 : :Глава 14
01:08:22.306 : :Глава 15
01:18:45.345 : :Глава 16

 
Не забывайте говорить Спасибо. Не уходите с раздачи!   
Торрент: Зарегистрирован [16 май 2019, 08:49] Скачать торрент
Скачать торрент
[ Размер 53.84 КБ / Просмотров 2 ]
Статус:
Проверен
 
.torrent скачан: 0 раз
Хэш: c279ddbf3613cc8e70767b11c33af154870c41df
Размер: 41.06 ГБ (44 089 705 836 байт)
Стать Автором раздачи
 
 
Раздал: 100 ГБ
Скачал: 0 байт
Ратио: Seed.
Сообщения: 131043
Зарегистрирован: 09 апр 2015, 23:00


  • Похожие торренты
    Ответы
    Просмотры
    Последнее сообщение

Вернуться в Зарубежные фильмы 2006-2010 года

Ресурс не предоставляет электронные версии произведений, а занимается лишь коллекционированием и каталогизацией ссылок, присылаемых и публикуемых на форуме нашими читателями. Если вы являетесь правообладателем какого-либо представленного материала и не желаете чтобы ссылка на него находилась в нашем каталоге, свяжитесь с нами и мы незамедлительно удалим её. Файлы для обмена на трекере предоставлены пользователями сайта, и администрация не несёт ответственности за их содержание. Просьба не заливать файлы, защищенные авторскими правами, а также файлы нелегального содержания!
cron