Адреналин / Crank (2006) UHD BDRemux 2160p от ExKinoRay | 4K | HDR | Dolby Vision | D

 
 Статистика раздачи 
Размер: 41.94 ГБ   |  Зарегистрирован: 16 май 2019, 08:43   |   .torrent скачан: 0 раз
Сидеров: 1  [ 0 байт/сек ]     Личеров: 0  [ 0 байт/сек ]  
  

Адреналин / Crank (2006) UHD BDRemux 2160p от ExKinoRay | 4K | HDR | Dolby Vision | D

Сообщение Lester » 16 май 2019, 09:18

Адреналин
Crank
«Есть тысяча способов поднять адреналин... Сегодня ему нужны все!»


Название: Адреналин
Оригинальное название: Crank
Год выпуска: 2006
Жанр: Боевик, триллер, криминал
Выпущено: США, @ radical media, GreeneStreet Films Inc., Lakeshore Entertainment, Lions Gate Films Inc.
Режиссер: Марк Невелдайн, Брайан Тейлор
В ролях: Джейсон Стэйтем, Эми Смарт, Хосе Пабло Кантилльо, Эфрен Рамирез, Дуайт Йоакам, Карлос Санс, Рено Уилсон, Эди Гатеги, Гленн Хоуертон, Джей Ксала, Кион Янг, Валери Рэй Миллер, Юсуф Азами, Лоран Шваар, Дэвид Браун (IV), Дориан Кинги, Мед Аброуз, Дэниэл Стивенс, Уолли Лозаньо, Дэвид Т. Грин, Ив Лосет, Аллен Блумфилд, Стефани Мейс, Честер Беннингтон, Майкл МакЛафферти, Эрл Кэрролл, Брайан Свибел, Дон Смит, Шон Грэхэм, Дэн Каллахан, Ноэль Гульеми, Дэниэл Венегас, Фрэнсис Капра, Фрэнк Блейк, Майкл Дж. Гонзалез, Кен Морено, Трой Робинсон, Эдди Перес, Джастин Ример, Питер Чои, Элизабет Джейн Хон
Продолжительность: 01:27:37
Перевод: Дублированный
Описание:

Наемный убийца Чев узнает, что недоброжелатели отравили его редким китайским ядом и отрава начнет действовать немедленно, как только пульс перестанет биться ниже определенной отметки.

И теперь Чеву нужно успеть сделать все свои дела, попробовать раздобыть противоядие и отомстить своим отравителям в прямом смысле слова впопыхах — стараясь создавать вокруг себя как можно более напряженную обстановку и не расслабляться ни на секунду.



Файл
Контейнер: MP4
Качество: Blu-Ray Remux (2160p)
Видео: HEVC, 60 Мбит/с, 3840x2160, 23.976 кадр/с

Аудио : AC-3, 48.0 kHz, 6 ch, 448 kb/s, CBR (Russian) | Дублированный |






Общее
Полное имя : Crank.2006.2160p.UHD.BDRemux.2160p.DV.IVA.RUS.ExKinoRay.mp4
Формат : MPEG-4
Профиль формата : Base Media / Version 2
Идентификатор кодека : mp42 (mp42/iso6/isom/msdh/dby1)
Размер файла : 41,9 Гбайт
Продолжительность : 1 ч. 27 м.
Общий поток : 68,5 Мбит/сек
Дата кодирования : UTC 2019-05-16 03:50:16
Дата пометки : UTC 2019-05-16 03:50:16

Видео #1
Идентификатор : 1
Формат : HEVC
Формат/Информация : High Efficiency Video Coding
Профиль формата : Main 10@L5.1@High
HDR_Format : SMPTE ST 2086, HDR10 compatible
Идентификатор кодека : hev1
Идентификатор кодека/Информация : High Efficiency Video Coding
Продолжительность : 1 ч. 27 м.
Битрейт : 60,0 Мбит/сек
Ширина : 3840 пикселей
Высота : 2160 пикселей
Соотношение сторон : 16:9
Режим частоты кадров : Постоянный
Частота кадров : 23,976 (24000/1001) кадра/сек
Цветовое пространство : YUV
Субдискретизация насыщенности : 4:2:0 (Type 2)
Битовая глубина : 10 бит
Бит/(Пиксели*Кадры) : 0.302
Размер потока : 36,7 Гбайт (88%)
Default : Нет
Дата кодирования : UTC 2019-05-16 03:50:16
Дата пометки : UTC 2019-05-16 03:50:16
Цветовой диапазон : Limited
Основные цвета : BT.2020
Характеристики трансфера : PQ
Коэффициенты матрицы : BT.2020 non-constant
MasteringDisplay_ColorPrimaries : Display P3
MasteringDisplay_Luminance : min: 0.0001 cd/m2, max: 1000 cd/m2
MaxCLL : 732 cd/m2
MaxFALL : 213 cd/m2
Codec configuration box : hvcC

Видео #2
Идентификатор : 2
Формат : HEVC
Формат/Информация : High Efficiency Video Coding
Профиль формата : Main 10@L5.1@High
HDR_Format : Dolby Vision, Version 1.0, dvhe.07.06, EL+RPU / SMPTE ST 2086, HDR10 compatible
Идентификатор кодека : dvhe
Идентификатор кодека/Информация : High Efficiency Video Coding with Dolby Vision
Продолжительность : 1 ч. 27 м.
Битрейт : 8041 Кбит/сек
Ширина : 1920 пикселей
Высота : 1080 пикселей
Соотношение сторон : 16:9
Режим частоты кадров : Постоянный
Частота кадров : 23,976 (24000/1001) кадра/сек
Цветовое пространство : YUV
Субдискретизация насыщенности : 4:2:0 (Type 2)
Битовая глубина : 10 бит
Бит/(Пиксели*Кадры) : 0.162
Размер потока : 4,92 Гбайт (12%)
Default : Нет
Дата кодирования : UTC 2019-05-16 03:50:16
Дата пометки : UTC 2019-05-16 03:50:16
Цветовой диапазон : Limited
Основные цвета : BT.2020
Характеристики трансфера : PQ
Коэффициенты матрицы : BT.2020 non-constant
MasteringDisplay_ColorPrimaries : Display P3
MasteringDisplay_Luminance : min: 0.0001 cd/m2, max: 1000 cd/m2
Codec configuration box : hvcC+dvcC

Аудио
Идентификатор : 3
Формат : AC-3
Формат/Информация : Audio Coding 3
Коммерческое название : Dolby Digital
Идентификатор кодека : ac-3
Продолжительность : 1 ч. 27 м.
Вид битрейта : Постоянный
Битрейт : 448 Кбит/сек
Каналы : 6 каналов
ChannelLayout : L R C LFE Ls Rs
Частота : 48,0 КГц
Частота кадров : 31,250 кадров/сек (1536 SPF)
Битовая глубина : 16 бит
Метод сжатия : С потерями
Размер потока : 281 Мбайт (1%)
Язык : Russian
ServiceKind : Complete Main
Default : Нет
Дата кодирования : UTC 2019-05-16 03:50:16
Дата пометки : UTC 2019-05-16 03:50:16
 
Не забывайте говорить Спасибо. Не уходите с раздачи!   
Торрент: Зарегистрирован [16 май 2019, 08:43] Скачать торрент
Скачать торрент
[ Размер 54.93 КБ / Просмотров 3 ]
Статус:
Проверен
 
.torrent скачан: 0 раз
Хэш: 210d868608a572c007c66372e363262ef81c58b8
Размер: 41.94 ГБ (45 028 699 216 байт)
Стать Автором раздачи
 
 
Раздал: 100 ГБ
Скачал: 0 байт
Ратио: Seed.
Сообщения: 131043
Зарегистрирован: 09 апр 2015, 23:00


  • Похожие торренты
    Ответы
    Просмотры
    Последнее сообщение

Вернуться в Зарубежные фильмы 2006-2010 года

Ресурс не предоставляет электронные версии произведений, а занимается лишь коллекционированием и каталогизацией ссылок, присылаемых и публикуемых на форуме нашими читателями. Если вы являетесь правообладателем какого-либо представленного материала и не желаете чтобы ссылка на него находилась в нашем каталоге, свяжитесь с нами и мы незамедлительно удалим её. Файлы для обмена на трекере предоставлены пользователями сайта, и администрация не несёт ответственности за их содержание. Просьба не заливать файлы, защищенные авторскими правами, а также файлы нелегального содержания!
cron