Секреты Лос-Анджелеса / L.A. Confidential (1997) BDRip-HEVC 1080p от KORSAR | P, P2, A

 
 Статистика раздачи 
Размер: 12.49 ГБ   |  Зарегистрирован: 15 май 2019, 21:09   |   .torrent скачан: 0 раз
Сидеров: 1  [ 0 байт/сек ]     Личеров: 0  [ 0 байт/сек ]  
  

Секреты Лос-Анджелеса / L.A. Confidential (1997) BDRip-HEVC 1080p от KORSAR | P, P2, A

Сообщение Lester » 15 май 2019, 21:36

Информация о фильме
Название: Секреты Лос-Анджелеса
Оригинальное название: L.A. Confidential
Год выхода: 1997
Жанр: триллер, драма, криминал, детектив
Режиссер: Кёртис Хэнсон
В ролях: Рассел Кроу, Гай Пирс, Кевин Спейси, Ким Бейсингер, Джеймс Кромуэлл, Дэнни ДеВито, Дэвид Стрэтэйрн, Рон Рифкин, Мэтт МакКой, Пол Гилфойл

О фильме:
Добро пожаловать в Лос-Анджелес, с его ярким солнцем, широкими манящими пляжами и … процветающей организованной преступностью. Известно даже имя главы преступного мира — Микки Коэн. После ареста босса мафии один за другим в мир иной отправляются его помощники, стремившиеся занять освободившееся место Микки.
В битву с преступниками, естественно, вступает знаменитая полиция Лос-Анджелеса. Двое бесстрашных полицейских, расследующих серию убийств, оказываются соперниками не только на работе, но и в постели проститутки из экзотического борделя.



Страна: США
Студия: Warner Bros. Pictures, Regency Enterprises, The Wolper Organization.
Продолжительность: 02:17:53
Перевод: Профессиональный многоголосый, двухголосый, авторский одноголосый

Файл
Качество: BDRip-HEVC 1080p
Видео: HEVC, 1916x800 (2.40:1), 7388 Кбит/сек, 0.201 бит/(Пиксели*Кадры), 23.976 (24000/1001) кадр/сек, 10 бит
Звук:
Аудио1: Русская, AC3 384 Кбит/сек, 6 канала(ов),16bit 48,0 КГц Многоголосый (Gemini Fox)
Аудио2: Русская, AC3 192 Кбит/сек, 2 канала(ов),16bit 48,0 КГц Многоголосый (РТР)
Аудио3: Русская, AC3 192 Кбит/сек, 2 канала(ов),16bit 48,0 КГц Многоголосый (ТВ-3)
Аудио4: Русская, AC3 384 Кбит/сек, 6 канала(ов),16bit 48,0 КГц Двухголосый (Twister / LaserVideo)
Аудио5: Русская, AC3 192 Кбит/сек, 2 канала(ов),16bit 48,0 КГц Двухголосый (ОРТ)
Аудио6: Русская, AC3 640 Кбит/сек, 6 канала(ов),16bit 48,0 КГц Одноголосый (Гаврилов)
Аудио7: Русская, AC3 640 Кбит/сек, 6 канала(ов),16bit 48,0 КГц Одноголосый (Живов)
Аудио8: Русская, AC3 640 Кбит/сек, 6 канала(ов),16bit 48,0 КГц Одноголосый (Гаевский)
Аудио9: Русская, AC3 640 Кбит/сек, 6 канала(ов),16bit 48,0 КГц Одноголосый (Матвеев aka Doctor Joker)
Аудио10: Русская, AC3 640 Кбит/сек, 6 канала(ов),16bit 48,0 КГц Одноголосый (Яковлев aka Самарский)
Аудио11: Русская, AC3 192 Кбит/сек, 2 канала(ов),16bit 48,0 КГц Одноголосый (Горчаков)
Аудио12: Русская, AC3 192 Кбит/сек, 2 канала(ов),16bit 48,0 КГц Одноголосый (Антонов)
Аудио13: English, AC3 640 Кбит/сек, 6 канала(ов),16bit 48,0 КГц Original
Субтитры: Русские (4 вида), English, English SDH
Навигация по главам: Есть

В переводе Матвеева, а так же в субтитрах №3 и №4 присутствует ненормативная лексика

x265 [info]: frame I: 1661, Avg QP:17.45 kb/s: 20909.19
x265 [info]: frame P: 39216, Avg QP:19.01 kb/s: 15578.91
x265 [info]: frame B: 157483, Avg QP:20.98 kb/s: 5205.20
x265 [info]: consecutive B-frames: 5.3% 1.3% 4.1% 31.4% 11.8% 43.7% 1.6% 0.5% 0.2% 0.1% 0.1%

General
Unique ID : 8890991642955235269172616096084618512 (0x6B057BB73CF8FBA26384B1E2D976D10)
Complete name : S:HEVC2Секреты Лос-Анджелеса - L.A. Confidential (1997) BDRip-HEVC 1080p - KORSAR.mkv
Format : Matroska
Format version : Version 4
File size : 12.5 GiB
Duration : 2 h 17 min
Overall bit rate : 13.0 Mb/s
Movie name : L.A. Confidential (1997)_rip_by_Cthulhu
Encoded date : UTC 2019-05-11 19:51:45
Writing application : mkvmerge v33.1.0 ('Primrose') 64-bit
Writing library : libebml v1.3.7 + libmatroska v1.5.0
Cover : Yes
Attachments : cover.jpg

Video
ID : 1
Format : HEVC
Format/Info : High Efficiency Video Coding
Format profile : Main 10@L4.1@High
Codec ID : V_MPEGH/ISO/HEVC
Duration : 2 h 17 min
Bit rate : 7 388 kb/s
Width : 1 916 pixels
Height : 800 pixels
Display aspect ratio : 2.40:1
Frame rate mode : Constant
Frame rate : 23.976 (24000/1001) FPS
Color space : YUV
Chroma subsampling : 4:2:0
Bit depth : 10 bits
Bits/(Pixel*Frame) : 0.201
Stream size : 7.12 GiB (57%)
Writing library : x265 3.0+1-ed72af837053:[Windows][MSVC 1916][64 bit] 10bit
Encoding settings : cpuid=1111039 / frame-threads=4 / numa-pools=16 / wpp / no-pmode / no-pme / no-psnr / no-ssim / log-level=2 / input-csp=1 / input-res=1916x800 / interlace=0 / total-frames=198360 / level-idc=41 / high-tier=1 / uhd-bd=0 / ref=5 / no-allow-non-conformance / no-repeat-headers / annexb / no-aud / no-hrd / info / hash=0 / no-temporal-layers / open-gop / min-keyint=23 / keyint=240 / gop-lookahead=0 / bframes=10 / b-adapt=2 / b-pyramid / bframe-bias=0 / rc-lookahead=60 / lookahead-slices=1 / scenecut=40 / radl=0 / no-splice / no-intra-refresh / ctu=32 / min-cu-size=8 / rect / amp / max-tu-size=32 / tu-inter-depth=4 / tu-intra-depth=4 / limit-tu=1 / rdoq-level=2 / dynamic-rd=0.00 / no-ssim-rd / signhide / no-tskip / nr-intra=0 / nr-inter=0 / no-constrained-intra / no-strong-intra-smoothing / max-merge=5 / limit-refs=3 / limit-modes / me=3 / subme=7 / merange=57 / temporal-mvp / weightp / weightb / no-analyze-src-pics / deblock=-3:-3 / no-sao / no-sao-non-deblock / rd=6 / no-early-skip / no-rskip / no-fast-intra / no-tskip-fast / no-cu-lossless / no-b-intra / no-splitrd-skip / rdpenalty=0 / psy-rd=1.85 / psy-rdoq=1.15 / no-rd-refine / no-lossless / cbqpoffs=0 / crqpoffs=0 / rc=crf / crf=18.5 / qcomp=0.70 / qpstep=4 / stats-write=0 / stats-read=0 / vbv-maxrate=50000 / vbv-bufsize=50000 / vbv-init=0.9 / crf-max=0.0 / crf-min=0.0 / ipratio=1.40 / pbratio=1.30 / aq-mode=1 / aq-strength=1.00 / no-cutree / zone-count=1 / zones: / start-frame=191486 / end-frame=198359 / qp=35 / no-strict-cbr / qg-size=32 / no-rc-grain / qpmax=69 / qpmin=0 / no-const-vbv / sar=1 / overscan=0 / videoformat=5 / range=0 / colorprim=1 / transfer=1 / colormatrix=1 / chromaloc=0 / display-window=0 / max-cll=0,0 / min-luma=0 / max-luma=1023 / log2-max-poc-lsb=8 / vui-timing-info / vui-hrd-info / slices=1 / no-opt-qp-pps / no-opt-ref-list-length-pps / no-multi-pass-opt-rps / scenecut-bias=0.05 / no-opt-cu-delta-qp / no-aq-motion / no-hdr / no-hdr-opt / no-dhdr10-opt / no-idr-recovery-sei / analysis-reuse-level=5 / scale-factor=0 / refine-intra=0 / refine-inter=0 / refine-mv=0 / refine-ctu-distortion=0 / no-limit-sao / ctu-info=0 / no-lowpass-dct / refine-analysis-type=0 / copy-pic=1 / max-ausize-factor=1.0 / no-dynamic-refine / no-single-sei / hevc-aq / qp-adaptation-range=2.00
Language : English
Default : Yes
Forced : No
Color range : Limited
Color primaries : BT.709
Transfer characteristics : BT.709
Matrix coefficients : BT.709

Audio #1
ID : 2
Format : AC-3
Format/Info : Audio Coding 3
Commercial name : Dolby Digital
Codec ID : A_AC3
Duration : 2 h 17 min
Bit rate mode : Constant
Bit rate : 384 kb/s
Channel(s) : 6 channels
Channel layout : L R C LFE Ls Rs
Sampling rate : 48.0 kHz
Frame rate : 31.250 FPS (1536 SPF)
Bit depth : 16 bits
Compression mode : Lossy
Stream size : 379 MiB (3%)
Title : MVO Gemini Fox
Language : Russian
Service kind : Complete Main
Default : Yes
Forced : No

Audio #2
ID : 3
Format : AC-3
Format/Info : Audio Coding 3
Commercial name : Dolby Digital
Codec ID : A_AC3
Duration : 2 h 17 min
Bit rate mode : Constant
Bit rate : 192 kb/s
Channel(s) : 2 channels
Channel layout : L R
Sampling rate : 48.0 kHz
Frame rate : 31.250 FPS (1536 SPF)
Bit depth : 16 bits
Compression mode : Lossy
Stream size : 189 MiB (1%)
Title : MVO РТР
Language : Russian
Service kind : Complete Main
Default : No
Forced : No

Audio #3
ID : 4
Format : AC-3
Format/Info : Audio Coding 3
Commercial name : Dolby Digital
Codec ID : A_AC3
Duration : 2 h 17 min
Bit rate mode : Constant
Bit rate : 192 kb/s
Channel(s) : 2 channels
Channel layout : L R
Sampling rate : 48.0 kHz
Frame rate : 31.250 FPS (1536 SPF)
Bit depth : 16 bits
Compression mode : Lossy
Stream size : 189 MiB (1%)
Title : MVO ТВ-3
Language : Russian
Service kind : Complete Main
Default : No
Forced : No

Audio #4
ID : 5
Format : AC-3
Format/Info : Audio Coding 3
Commercial name : Dolby Digital
Codec ID : A_AC3
Duration : 2 h 17 min
Bit rate mode : Constant
Bit rate : 384 kb/s
Channel(s) : 6 channels
Channel layout : L R C LFE Ls Rs
Sampling rate : 48.0 kHz
Frame rate : 31.250 FPS (1536 SPF)
Bit depth : 16 bits
Compression mode : Lossy
Stream size : 379 MiB (3%)
Title : DVO Twister (LaserVideo)
Language : Russian
Service kind : Complete Main
Default : No
Forced : No

Audio #5
ID : 6
Format : AC-3
Format/Info : Audio Coding 3
Commercial name : Dolby Digital
Codec ID : A_AC3
Duration : 2 h 17 min
Bit rate mode : Constant
Bit rate : 192 kb/s
Channel(s) : 2 channels
Channel layout : L R
Sampling rate : 48.0 kHz
Frame rate : 31.250 FPS (1536 SPF)
Bit depth : 16 bits
Compression mode : Lossy
Stream size : 189 MiB (1%)
Title : DVO ОРТ
Language : Russian
Service kind : Complete Main
Default : No
Forced : No

Audio #6
ID : 7
Format : AC-3
Format/Info : Audio Coding 3
Commercial name : Dolby Digital
Codec ID : A_AC3
Duration : 2 h 17 min
Bit rate mode : Constant
Bit rate : 640 kb/s
Channel(s) : 6 channels
Channel layout : L R C LFE Ls Rs
Sampling rate : 48.0 kHz
Frame rate : 31.250 FPS (1536 SPF)
Bit depth : 16 bits
Compression mode : Lossy
Stream size : 631 MiB (5%)
Title : AVO Гаврилов
Language : Russian
Service kind : Complete Main
Default : No
Forced : No

Audio #7
ID : 8
Format : AC-3
Format/Info : Audio Coding 3
Commercial name : Dolby Digital
Codec ID : A_AC3
Duration : 2 h 17 min
Bit rate mode : Constant
Bit rate : 640 kb/s
Channel(s) : 6 channels
Channel layout : L R C LFE Ls Rs
Sampling rate : 48.0 kHz
Frame rate : 31.250 FPS (1536 SPF)
Bit depth : 16 bits
Compression mode : Lossy
Stream size : 631 MiB (5%)
Title : AVO Живов
Language : Russian
Service kind : Complete Main
Default : No
Forced : No

Audio #8
ID : 9
Format : AC-3
Format/Info : Audio Coding 3
Commercial name : Dolby Digital
Codec ID : A_AC3
Duration : 2 h 17 min
Bit rate mode : Constant
Bit rate : 640 kb/s
Channel(s) : 6 channels
Channel layout : L R C LFE Ls Rs
Sampling rate : 48.0 kHz
Frame rate : 31.250 FPS (1536 SPF)
Bit depth : 16 bits
Compression mode : Lossy
Stream size : 631 MiB (5%)
Title : AVO Гаевский
Language : Russian
Service kind : Complete Main
Default : No
Forced : No

Audio #9
ID : 10
Format : AC-3
Format/Info : Audio Coding 3
Commercial name : Dolby Digital
Codec ID : A_AC3
Duration : 2 h 17 min
Bit rate mode : Constant
Bit rate : 640 kb/s
Channel(s) : 6 channels
Channel layout : L R C LFE Ls Rs
Sampling rate : 48.0 kHz
Frame rate : 31.250 FPS (1536 SPF)
Bit depth : 16 bits
Compression mode : Lossy
Stream size : 631 MiB (5%)
Title : AVO Матвеев (Doctor Joker)
Language : Russian
Service kind : Complete Main
Default : No
Forced : No

Audio #10
ID : 11
Format : AC-3
Format/Info : Audio Coding 3
Commercial name : Dolby Digital
Codec ID : A_AC3
Duration : 2 h 17 min
Bit rate mode : Constant
Bit rate : 640 kb/s
Channel(s) : 6 channels
Channel layout : L R C LFE Ls Rs
Sampling rate : 48.0 kHz
Frame rate : 31.250 FPS (1536 SPF)
Bit depth : 16 bits
Compression mode : Lossy
Stream size : 631 MiB (5%)
Title : AVO Яковлев (Самарский)
Language : Russian
Service kind : Complete Main
Default : No
Forced : No

Audio #11
ID : 12
Format : AC-3
Format/Info : Audio Coding 3
Commercial name : Dolby Digital
Codec ID : A_AC3
Duration : 2 h 17 min
Bit rate mode : Constant
Bit rate : 192 kb/s
Channel(s) : 2 channels
Channel layout : L R
Sampling rate : 48.0 kHz
Frame rate : 31.250 FPS (1536 SPF)
Bit depth : 16 bits
Compression mode : Lossy
Stream size : 189 MiB (1%)
Title : AVO Горчаков
Language : Russian
Service kind : Complete Main
Default : No
Forced : No

Audio #12
ID : 13
Format : AC-3
Format/Info : Audio Coding 3
Commercial name : Dolby Digital
Codec ID : A_AC3
Duration : 2 h 17 min
Bit rate mode : Constant
Bit rate : 192 kb/s
Channel(s) : 2 channels
Channel layout : L R
Sampling rate : 48.0 kHz
Frame rate : 31.250 FPS (1536 SPF)
Bit depth : 16 bits
Compression mode : Lossy
Stream size : 189 MiB (1%)
Title : AVO Антонов
Language : Russian
Service kind : Complete Main
Default : No
Forced : No

Audio #13
ID : 14
Format : AC-3
Format/Info : Audio Coding 3
Commercial name : Dolby Digital
Codec ID : A_AC3
Duration : 2 h 17 min
Bit rate mode : Constant
Bit rate : 640 kb/s
Channel(s) : 6 channels
Channel layout : L R C LFE Ls Rs
Sampling rate : 48.0 kHz
Frame rate : 31.250 FPS (1536 SPF)
Bit depth : 16 bits
Compression mode : Lossy
Stream size : 631 MiB (5%)
Title : Original
Language : English
Service kind : Complete Main
Default : No
Forced : No

Text #1
ID : 15
Format : UTF-8
Codec ID : S_TEXT/UTF8
Codec ID/Info : UTF-8 Plain Text
Duration : 2 h 11 min
Bit rate : 92 b/s
Count of elements : 1560
Stream size : 89.3 KiB (0%)
Title : RUS Gemini
Language : Russian
Default : No
Forced : No

Text #2
ID : 16
Format : UTF-8
Codec ID : S_TEXT/UTF8
Codec ID/Info : UTF-8 Plain Text
Duration : 2 h 11 min
Bit rate : 106 b/s
Count of elements : 1457
Stream size : 103 KiB (0%)
Title : RUS Twister
Language : Russian
Default : No
Forced : No

Text #3
ID : 17
Format : UTF-8
Codec ID : S_TEXT/UTF8
Codec ID/Info : UTF-8 Plain Text
Duration : 2 h 13 min
Bit rate : 112 b/s
Count of elements : 1572
Stream size : 110 KiB (0%)
Title : RUS Матвеев
Language : Russian
Default : No
Forced : No

Text #4
ID : 18
Format : UTF-8
Codec ID : S_TEXT/UTF8
Codec ID/Info : UTF-8 Plain Text
Duration : 2 h 12 min
Bit rate : 98 b/s
Count of elements : 1636
Stream size : 95.8 KiB (0%)
Title : RUS Uncle KiLler
Language : Russian
Default : No
Forced : No

Text #5
ID : 19
Format : UTF-8
Codec ID : S_TEXT/UTF8
Codec ID/Info : UTF-8 Plain Text
Duration : 2 h 17 min
Bit rate : 55 b/s
Count of elements : 1625
Stream size : 55.6 KiB (0%)
Title : ENG
Language : English
Default : No
Forced : No

Text #6
ID : 20
Format : UTF-8
Codec ID : S_TEXT/UTF8
Codec ID/Info : UTF-8 Plain Text
Duration : 2 h 17 min
Bit rate : 62 b/s
Count of elements : 1658
Stream size : 62.7 KiB (0%)
Title : ENG SDH
Language : English
Default : No
Forced : No

Menu
00:00:00.000 : en:
00:16:20.938 : en:
00:24:27.549 : en:
00:30:01.967 : en:
00:36:45.995 : en:
00:45:59.632 : en:
00:56:08.031 : en:
01:02:27.619 : en:
01:07:45.645 : en:
01:14:33.010 : en:
01:24:27.145 : en:
01:36:37.291 : en:
01:40:50.127 : en:
01:51:31.310 : en:
01:58:18.800 : en:
02:07:05.952 : en:
02:13:01.640 : en:



Релиз от: Cthulhu
 
Не забывайте говорить Спасибо. Не уходите с раздачи!   
Торрент: Зарегистрирован [15 май 2019, 21:09] Скачать торрент
Скачать торрент
[ Размер 63.5 КБ / Просмотров 2 ]
Статус:
Проверен
 
.torrent скачан: 0 раз
Хэш: ceafe2b15ed8e5766dc93577766ae947b342e54f
Размер: 12.49 ГБ (13 405 745 496 байт)
Стать Автором раздачи
 
 
Раздал: 100 ГБ
Скачал: 0 байт
Ратио: Seed.
Сообщения: 131043
Зарегистрирован: 09 апр 2015, 23:00


  • Похожие торренты
    Ответы
    Просмотры
    Последнее сообщение

Вернуться в Зарубежные фильмы 1991-2000

Ресурс не предоставляет электронные версии произведений, а занимается лишь коллекционированием и каталогизацией ссылок, присылаемых и публикуемых на форуме нашими читателями. Если вы являетесь правообладателем какого-либо представленного материала и не желаете чтобы ссылка на него находилась в нашем каталоге, свяжитесь с нами и мы незамедлительно удалим её. Файлы для обмена на трекере предоставлены пользователями сайта, и администрация не несёт ответственности за их содержание. Просьба не заливать файлы, защищенные авторскими правами, а также файлы нелегального содержания!
cron