Короткие истории (1963) DVDRip-AVC от New-Team

 
 Статистика раздачи 
Размер: 1.46 ГБ   |  Зарегистрирован: 15 май 2019, 19:43   |   .torrent скачан: 0 раз
Сидеров: 1  [ 0 байт/сек ]     Личеров: 0  [ 0 байт/сек ]  
  

Короткие истории (1963) DVDRip-AVC от New-Team

Сообщение aLaVodka » 15 май 2019, 21:00

Страна: СССР
Производство: ОПФ (Останкино), ЦТ

Жанр: мюзикл, комедия
Год выпуска: 1963
Продолжительность: 02:06:01

Перевод: Не требуется
Cубтитры: нет
Оригинальная аудиодорожка: русский

Режиссер: Михаил Григорьев

В ролях:
Лилия Трунина, Людмила Графова, Людмила Васильева, Ирина Седлярова, Светлана Захватошина, Инна Харламова, Елена Хуцешвили, Леонид Швачкин, Георгий Вовк, Юрий Гердов, Валентин Смирнов, Валентина Токарская, Екатерина Деревщикова, Георгий Менглет, Владимир Лепко, Юрий Соковнин, Георгий Тусузов, Клеон Протасов, Вячеслав Царёв, Юрий Медведев, Юрий Фомичёв, Ольга Аросева, Бронислава Тронова, Виктор Байков, Вера Орлова, Алексей Варламов, Михаил Пуговкин, Евгений Леонов, Борис Чирков, Владимир Корецкий, Георгий Вицин, Людмила Геника-Чиркова, Владимир Раутбарт, Леонид Пирогов, Всеволод Ларионов, Александр Шворин, Павел Винник, Борис Брунов, Мария Миронова, Александр Менакер, Светлана Харитонова, Ростислав Плятт, Анатолий Папанов, Марина Куракова, Маргарита Жигунова, Роза Макагонова, Владимир Васильев (II), Екатерина Райкина, Нина Архипова, Реля Башич, Юрий Волынцев...
Об актёрах подробней

Описание:
Фильм состоит из экранизации юмористических миниатюр писателей зарубежных стран: «Улыбнись, товарищ!», «Интересно», «Вопрос о лопнувшей трубе», «Я стучу на машинке», «И так бывает», «Осторожный человек», «Времена года», «Семейный вечер», «Шутки-малютки», «Условия развода», «Телефон», «Калиновский», «Сестра Моника», «Улыбка художника», «Случай в самолете», «Мошенник», «Тайна комнаты № 216», «Порядок прежде всего», «В суде», «Слоны из мух», «Умелец», «Гостеприимство», «Поучительный случай», «Легенда о блуждающих зеркалах», «Маэстро», «Следите за моралью» и др.





Источник: DVD5 R5
Качество видео: DVDRip-AVC
Формат видео: MKV

Видео: 688->756х568 (4:3), 25,000 fps, H264 ~ 1463 kbps avg, 0.150 bit/pixel
Аудио: 48 kHz, Dolby Digital AC3 2.0, 192 kbps

Раздача от:
Общее
Полное имя : Korotkie.istorii.1963.DVDRip-AVC_[New-team]_by_AVP_Studio.mkv
Формат : Matroska
Версия формата : Version 2
Размер файла : 1,46 Гбайт
Продолжительность : 2 ч. 6 м.
Общий поток : 1657 Кбит/сек
Дата кодирования : UTC 2019-05-14 13:22:04
Программа кодирования : mkvmerge v6.1.0 ('Old Devil') built on Mar 4 2013 09:10:42
Библиотека кодирования : libebml v1.3.0 + libmatroska v1.4.0

Видео
Идентификатор : 1
Формат : AVC
Формат/Информация : Advanced Video Codec
Профиль формата : High@L4.1
Настройки формата : CABAC / 10 Ref Frames
Параметр CABAC формата : Да
Параметр RefFrames формата : 10 кадров
Идентификатор кодека : V_MPEG4/ISO/AVC
Продолжительность : 2 ч. 6 м.
Битрейт : 1463 Кбит/сек
Ширина : 688 пикселей
Высота : 568 пикселей
Соотношение сторон : 4:3
Режим частоты кадров : Постоянный
Частота кадров : 25,000 кадров/сек
Цветовое пространство : YUV
Субдискретизация насыщенности : 4:2:0
Битовая глубина : 8 бит
Тип развёртки : Прогрессивная
Бит/(Пиксели*Кадры) : 0.150
Размер потока : 1,26 Гбайт (86%)
Библиотека кодирования : x264 core 157 r2935 545de2f
Настройки программы : cabac=1 / ref=10 / deblock=1:-2:-1 / analyse=0x3:0x113 / me=umh / subme=10 / psy=1 / psy_rd=1.00:0.00 / mixed_ref=1 / me_range=32 / chroma_me=1 / trellis=2 / 8x8dct=1 / cqm=0 / deadzone=21,11 / fast_pskip=1 / chroma_qp_offset=-2 / threads=6 / lookahead_threads=1 / sliced_threads=0 / nr=0 / decimate=0 / interlaced=0 / bluray_compat=0 / constrained_intra=0 / bframes=8 / b_pyramid=2 / b_adapt=2 / b_bias=0 / direct=3 / weightb=1 / open_gop=0 / weightp=2 / keyint=250 / keyint_min=25 / scenecut=40 / intra_refresh=0 / rc=2pass / mbtree=0 / bitrate=1463 / ratetol=1.0 / qcomp=0.60 / qpmin=0 / qpmax=69 / qpstep=4 / cplxblur=20.0 / qblur=0.5 / ip_ratio=1.40 / pb_ratio=1.30 / aq=1:1.00
Default : Да
Forced : Нет

Аудио
Идентификатор : 2
Формат : AC-3
Формат/Информация : Audio Coding 3
Коммерческое название : Dolby Digital
Идентификатор кодека : A_AC3
Продолжительность : 2 ч. 6 м.
Вид битрейта : Постоянный
Битрейт : 192 Кбит/сек
Каналы : 2 канала
ChannelLayout : L R
Частота : 48,0 КГц
Частота кадров : 31,250 кадров/сек (1536 SPF)
Битовая глубина : 16 бит
Метод сжатия : С потерями
Размер потока : 173 Мбайт (12%)
Default : Да
Forced : Нет


 
Не забывайте говорить Спасибо. Не уходите с раздачи!   
Торрент: Зарегистрирован [15 май 2019, 19:43] Скачать торрент
Скачать торрент
[ Размер 15.92 КБ / Просмотров 2 ]
Статус:
Проверен
 
.torrent скачан: 0 раз
Хэш: 6581bd4d5aba299ef985fe5a2fcee64602d038e6
Размер: 1.46 ГБ (1 565 642 777 байт)
Стать Автором раздачи
 
 
Раздал: 100 ГБ
Скачал: 0 байт
Ратио: Seed.
Сообщения: 195767
Зарегистрирован: 09 апр 2015, 20:00


  • Похожие торренты
    Ответы
    Просмотры
    Последнее сообщение

Вернуться в Кино СССР, Советской России, Российской республики (1917-1991)

Ресурс не предоставляет электронные версии произведений, а занимается лишь коллекционированием и каталогизацией ссылок, присылаемых и публикуемых на форуме нашими читателями. Если вы являетесь правообладателем какого-либо представленного материала и не желаете чтобы ссылка на него находилась в нашем каталоге, свяжитесь с нами и мы незамедлительно удалим её. Файлы для обмена на трекере предоставлены пользователями сайта, и администрация не несёт ответственности за их содержание. Просьба не заливать файлы, защищенные авторскими правами, а также файлы нелегального содержания!
cron