Короткие истории (1963) DVDRip от New-Team

 
 Статистика раздачи 
Размер: 1.46 ГБ   |  Зарегистрирован: 15 май 2019, 19:38   |   .torrent скачан: 0 раз
Сидеров: 1  [ 0 байт/сек ]     Личеров: 0  [ 0 байт/сек ]  
  

Короткие истории (1963) DVDRip от New-Team

Сообщение aLaVodka » 15 май 2019, 21:00

Страна: СССР
Производство: ОПФ (Останкино), ЦТ

Жанр: мюзикл, комедия
Год выпуска: 1963
Продолжительность: 02:06:01

Перевод: Не требуется
Cубтитры: нет
Оригинальная аудиодорожка: русский

Режиссер: Михаил Григорьев

В ролях:
Лилия Трунина, Людмила Графова, Людмила Васильева, Ирина Седлярова, Светлана Захватошина, Инна Харламова, Елена Хуцешвили, Леонид Швачкин, Георгий Вовк, Юрий Гердов, Валентин Смирнов, Валентина Токарская, Екатерина Деревщикова, Георгий Менглет, Владимир Лепко, Юрий Соковнин, Георгий Тусузов, Клеон Протасов, Вячеслав Царёв, Юрий Медведев, Юрий Фомичёв, Ольга Аросева, Бронислава Тронова, Виктор Байков, Вера Орлова, Алексей Варламов, Михаил Пуговкин, Евгений Леонов, Борис Чирков, Владимир Корецкий, Георгий Вицин, Людмила Геника-Чиркова, Владимир Раутбарт, Леонид Пирогов, Всеволод Ларионов, Александр Шворин, Павел Винник, Борис Брунов, Мария Миронова, Александр Менакер, Светлана Харитонова, Ростислав Плятт, Анатолий Папанов, Марина Куракова, Маргарита Жигунова, Роза Макагонова, Владимир Васильев (II), Екатерина Райкина, Нина Архипова, Реля Башич, Юрий Волынцев...
Об актёрах подробней

Описание:
Фильм состоит из экранизации юмористических миниатюр писателей зарубежных стран: «Улыбнись, товарищ!», «Интересно», «Вопрос о лопнувшей трубе», «Я стучу на машинке», «И так бывает», «Осторожный человек», «Времена года», «Семейный вечер», «Шутки-малютки», «Условия развода», «Телефон», «Калиновский», «Сестра Моника», «Улыбка художника», «Случай в самолете», «Мошенник», «Тайна комнаты № 216», «Порядок прежде всего», «В суде», «Слоны из мух», «Умелец», «Гостеприимство», «Поучительный случай», «Легенда о блуждающих зеркалах», «Маэстро», «Следите за моралью» и др.

#77


Источник: DVD5 R5
Качество видео: DVDRip
Формат видео: AVI

Видео: 688х512 (4:3), 25,000 fps, XviD ~ 1456 kbps avg, 0.165 bit/pixel
Аудио: 48 kHz, Dolby Digital AC3 2.0, 192 kbps

Раздача от:
Общее
Полное имя : Korotkie.istorii.1963.DVDRip_[New-team]_by_AVP_Studio.avi
Формат : AVI
Формат/Информация : Audio Video Interleave
Размер файла : 1,46 Гбайт
Продолжительность : 2 ч. 6 м.
Общий поток : 1658 Кбит/сек
Программа кодирования : VirtualDubMod 1.5.10.3 | www.virtualdub-fr.org || (build 2550/release)
Библиотека кодирования : VirtualDubMod build 2550/release

Видео
Идентификатор : 0
Формат : MPEG-4 Visual
Профиль формата : Advanced Simple@L5
Настройки формата : BVOP1 / Custom Matrix
Параметр BVOP формата : 1
Параметр QPel формата : Нет
Параметр GMC формата : Без точки перехода
Параметр матрицы формата : Выборочная
Идентификатор кодека : XVID
Идентификатор кодека/Подсказка : XviD
Продолжительность : 2 ч. 6 м.
Битрейт : 1456 Кбит/сек
Ширина : 688 пикселей
Высота : 512 пикселей
Соотношение сторон : 4:3
Частота кадров : 25,000 кадров/сек
Цветовое пространство : YUV
Субдискретизация насыщенности : 4:2:0
Битовая глубина : 8 бит
Тип развёртки : Прогрессивная
Метод сжатия : С потерями
Бит/(Пиксели*Кадры) : 0.165
Размер потока : 1,28 Гбайт (88%)
Библиотека кодирования : XviD 73

Аудио
Идентификатор : 1
Формат : AC-3
Формат/Информация : Audio Coding 3
Коммерческое название : Dolby Digital
Идентификатор кодека : 2000
Продолжительность : 2 ч. 6 м.
Вид битрейта : Постоянный
Битрейт : 192 Кбит/сек
Каналы : 2 канала
ChannelLayout : L R
Частота : 48,0 КГц
Частота кадров : 31,250 кадров/сек (1536 SPF)
Битовая глубина : 16 бит
Метод сжатия : С потерями
Размер потока : 173 Мбайт (12%)
Выравнивание : Разделение по промежуткам
Продолжительность промежутка : 40 мс. (1,00 видеокадр)
Время предзагрузки промежутка : 500 мс.


 
Не забывайте говорить Спасибо. Не уходите с раздачи!   
Торрент: Зарегистрирован [15 май 2019, 19:38] Скачать торрент
Скачать торрент
[ Размер 16.03 КБ / Просмотров 1 ]
Статус:
Проверен
 
.torrent скачан: 0 раз
Хэш: 6d4b23110e0e84574630ca22a9e51ae04c525ead
Размер: 1.46 ГБ (1 566 568 448 байт)
Стать Автором раздачи
 
 
Раздал: 100 ГБ
Скачал: 0 байт
Ратио: Seed.
Сообщения: 196180
Зарегистрирован: 09 апр 2015, 20:00


  • Похожие торренты
    Ответы
    Просмотры
    Последнее сообщение

Вернуться в Кино СССР, Советской России, Российской республики (1917-1991)

Ресурс не предоставляет электронные версии произведений, а занимается лишь коллекционированием и каталогизацией ссылок, присылаемых и публикуемых на форуме нашими читателями. Если вы являетесь правообладателем какого-либо представленного материала и не желаете чтобы ссылка на него находилась в нашем каталоге, свяжитесь с нами и мы незамедлительно удалим её. Файлы для обмена на трекере предоставлены пользователями сайта, и администрация не несёт ответственности за их содержание. Просьба не заливать файлы, защищенные авторскими правами, а также файлы нелегального содержания!
cron