Солнцестояние / Solstice (2008) HDRip-AVC от ExKinoRay | D

 
 Статистика раздачи 
Размер: 742.62 МБ   |  Зарегистрирован: 14 май 2019, 07:14   |   .torrent скачан: 0 раз
Сидеров: 1  [ 0 байт/сек ]     Личеров: 0  [ 0 байт/сек ]  
  

Солнцестояние / Solstice (2008) HDRip-AVC от ExKinoRay | D

Сообщение Lester » 14 май 2019, 07:43

Информация о фильме
Название: Солнцестояние
Оригинальное название: Solstice
Год выхода: 2008
Жанр: Ужасы, триллер, драма, детектив
Режиссер: Дэниэл Мирик
В ролях: Элизабет Харнуа, Хилари Бертон, Мэтт О'Лири, Аманда Сейфред, Тайлер Хечлин, Дженна Хилдебранд, А Ли Эрми, Шон Эшмор, Лиза Арнольд, Дэвид Дальгрен, Джейкоб Хэмил, Лайл Брокато, Марк Краснофф, Гари Майкл Смит, Клифф Джонсон

О фильме:
Группа подростков отправляет в поездку в американскую глушь, чтобы встретить день летнего солнцестояния. Меган хочет отвлечься от тяжёлых воспоминаний о самоубийстве сестры-близняшки Софи. Она привозит друзей в старый родительский дом, расположенный в Луизиане у озера. Поскольку в канун солнцестояния граница между миром живых и миром мёртвых становится тонкой и легко проницаемой, Меган пытается войти в контакт в душой умершей Софи, но, как известно, шутки с потусторонними силами плохи. Всевозможные "знаки" сыпятся на девушку, мешая ей совершить задуманное...


Страна: США
Студия: Endgame Entertainment, Solstice Productions
Продолжительность: 01:27:03
Перевод: Профессиональный (полное дублирование)

Файл
Формат: MKV
Качество: HDRip-AVC
Видео: MPEG-4 AVC, 800x340, - 1119 Кбит/с
Аудио: AAC-HE, 2 ch, - 76 Кбит/с
Субтитры: Русские, английские

Общее
Уникальный идентификатор : 147895052763429099762444937123593677190 (0x6F438D1335EFA190BE3053B37BB76986)
Полное имя : D:MOVIESSolstice.2008.ExKinoRay.mkv
Формат : Matroska
Версия формата : Version 4 / Version 2
Размер файла : 743 Мбайт
Продолжительность : 1 ч. 27 м.
Общий поток : 1192 Кбит/сек
Дата кодирования : UTC 2019-05-14 04:00:38
Программа кодирования : mkvmerge v32.0.0 ('Astral Progressions') 64-bit
Библиотека кодирования : libebml v1.3.7 + libmatroska v1.5.0

Видео
Идентификатор : 1
Формат : AVC
Формат/Информация : Advanced Video Codec
Профиль формата : High@L4.1
Параметр CABAC формата : Да
Параметр RefFrames формата : 12 кадров
Идентификатор кодека : V_MPEG4/ISO/AVC
Продолжительность : 1 ч. 27 м.
Битрейт : 1119 Кбит/сек
Ширина : 800 пикселей
Высота : 340 пикселей
Соотношение сторон : 2,35:1
Режим частоты кадров : Постоянный
Частота кадров : 25,000 кадров/сек
Цветовое пространство : YUV
Субдискретизация насыщенности : 4:2:0
Битовая глубина : 8 бит
Тип развёртки : Прогрессивная
Бит/(Пиксели*Кадры) : 0.165
Размер потока : 694 Мбайт (93%)
Библиотека кодирования : x264 core 152 r2851 ba24899
Настройки программы : cabac=1 / ref=12 / deblock=1:-3:-3 / analyse=0x3:0x133 / me=umh / subme=11 / psy=1 / psy_rd=1.00:0.13 / mixed_ref=1 / me_range=32 / chroma_me=1 / trellis=2 / 8x8dct=1 / cqm=0 / deadzone=21,11 / fast_pskip=0 / chroma_qp_offset=-3 / threads=6 / lookahead_threads=1 / sliced_threads=0 / nr=0 / decimate=0 / interlaced=0 / bluray_compat=0 / constrained_intra=0 / bframes=12 / b_pyramid=2 / b_adapt=2 / b_bias=0 / direct=3 / weightb=1 / open_gop=0 / weightp=2 / keyint=250 / keyint_min=25 / scenecut=40 / intra_refresh=0 / rc=2pass / mbtree=0 / bitrate=1119 / ratetol=1.0 / qcomp=0.60 / qpmin=0 / qpmax=69 / qpstep=4 / cplxblur=20.0 / qblur=0.5 / ip_ratio=1.40 / pb_ratio=1.30 / aq=1:1.00
Default : Да
Forced : Нет

Аудио
Идентификатор : 2
Формат : AAC
Формат/Информация : Advanced Audio Codec
Профиль формата : HE-AAC / LC
Идентификатор кодека : A_AAC
Продолжительность : 1 ч. 27 м.
Битрейт : 76,0 Кбит/сек
Каналы : 2 канала
Расположение каналов : Front: L R
Частота : 48,0 КГц / 24,0 КГц
Частота кадров : 23,438 кадра/сек (1024 SPF)
Метод сжатия : С потерями
Задержка видео : 31 мс.
Размер потока : 47,3 Мбайт (6%)
Язык : Russian
Default : Да
Forced : Нет

Текст #1
Идентификатор : 3
Формат : UTF-8
Идентификатор кодека : S_TEXT/UTF8
Идентификатор кодека/Информация : UTF-8 Plain Text
Продолжительность : 1 ч. 19 м.
Битрейт : 66 бит/сек
ElementCount : 827
Размер потока : 38,9 Кбайт (0%)
Язык : Russian
Default : Да
Forced : Нет

Текст #2
Идентификатор : 4
Формат : UTF-8
Идентификатор кодека : S_TEXT/UTF8
Идентификатор кодека/Информация : UTF-8 Plain Text
Продолжительность : 1 ч. 22 м.
Битрейт : 43 бит/сек
ElementCount : 840
Размер потока : 26,6 Кбайт (0%)
Язык : English
Default : Нет
Forced : Нет


 
Не забывайте говорить Спасибо. Не уходите с раздачи!   
Торрент: Зарегистрирован [14 май 2019, 07:14] Скачать торрент
Скачать торрент
[ Размер 15.54 КБ / Просмотров 0 ]
Статус:
Проверен
 
.torrent скачан: 0 раз
Хэш: ce0e138d630bd9a5f83104f24db7b811ba51c45c
Размер: 742.62 МБ (778 693 490 байт)
Стать Автором раздачи
 
 
Раздал: 100 ГБ
Скачал: 0 байт
Ратио: Seed.
Сообщения: 130822
Зарегистрирован: 09 апр 2015, 23:00


  • Похожие торренты
    Ответы
    Просмотры
    Последнее сообщение

Вернуться в Зарубежные фильмы 2006-2010 года

Ресурс не предоставляет электронные версии произведений, а занимается лишь коллекционированием и каталогизацией ссылок, присылаемых и публикуемых на форуме нашими читателями. Если вы являетесь правообладателем какого-либо представленного материала и не желаете чтобы ссылка на него находилась в нашем каталоге, свяжитесь с нами и мы незамедлительно удалим её. Файлы для обмена на трекере предоставлены пользователями сайта, и администрация не несёт ответственности за их содержание. Просьба не заливать файлы, защищенные авторскими правами, а также файлы нелегального содержания!
cron