Хлоя / Chloe (2009) BDRip-AVC | D | RUS Transfer

 
 Статистика раздачи 
Размер: 743.94 МБ   |  Зарегистрирован: 13 май 2019, 18:51   |   .torrent скачан: 0 раз
Сидеров: 1  [ 0 байт/сек ]     Личеров: 0  [ 0 байт/сек ]  
  

Хлоя / Chloe (2009) BDRip-AVC | D | RUS Transfer

Сообщение Lester » 13 май 2019, 19:20

Информация о фильме
Название: Хлоя
Оригинальное название: Chloe
Год выпуска: 2009
Жанр: Триллер, драма
Режиссер: Атом Эгоян
В ролях: Джулианна Мур, Лиам Нисон, Аманда Сайфред, Макс Тириот, Р.Х. Томсон, Нина Добрев, Мишу Веллани, Джули Ханер, Лаура ДеКартере, Натали Лисинска

О фильме:
У Кэтрин и Дэвида Стюартов есть престижная работа, отличный дом в Торонто и талантливый 17-летний сын Майкл. В свой день рождения Дэвид не прилетает домой из Нью-Йорка. Кэтрин уличает мужа в том, что он провел время в обществе своей студентки. Чтобы удостовериться, что Дэвид ей изменяет, она нанимает девушку по имени Хлоя, которая занимается элитной проституцией. Кэтрин просит ее соблазнить Дэвида и затем рассказать о том, что произошло. Общаясь с Хлоей, Кэтрин сама не замечает, как между ней и девушкой по вызову возникает взаимное влечение, которое едва не разрушает семью Стюартов и в итоге приводит к трагической развязке.



Страна: США, Канада, Франция
Студия: Studio Canal, The Montecito Picture Company
Продолжительность: 01:36:00
Перевод: Дублированный

Файл
Формат: Matroska
Качество: BDRip-AVC | [Chloe RUS Transfer Blu-Ray (1080p)]
Видео: 768x432 at 24.00 fps, x264, ~1001 kbps
Аудио: AAC, 2 ch, ~80 kbps - | Русский | -
Субтитры: Russian, English
Формат субтитров: softsub (SRT)

***Релиз от: -=DoMiNo=-

x264 info: frame I:970 Avg QP:17.52 size: 35392
x264 info: frame P:26328 Avg QP:18.68 size: 13246
x264 info: frame B:110953 Avg QP:20.18 size: 3084
x264 info: consecutive B-frames: 1.1% 1.3% 5.8% 12.7% 13.7% 48.2% 6.1% 3.5% 3.8% 1.2% 1.0% 0.9% 0.8%

General
Unique ID : 38477682070029475280913701676165461748 (0x1CF28831BCB3A19AF21DB91BB3C576F4)
Complete name : Хлоя.(2009).BDRip-AVC.R.T.O.M.[-=DoMiNo=-].mkv.mkv
Format : Matroska
Format version : Version 4
File size : 744 MiB
Duration : 1 h 36 min
Overall bit rate : 1 083 kb/s
Movie name : Хлоя / Chloe (2009) | RUS Transfer
Encoded date : UTC 2019-05-09 13:48:22
Writing application : mkvmerge v33.1.0 ('Primrose') 64-bit
Writing library : libebml v1.3.7 + libmatroska v1.5.0
Attachments : poster.jpg / poster.jpg

Video
ID : 1
Format : AVC
Format/Info : Advanced Video Codec
Format profile : High@L4.1
Format settings : CABAC / 14 Ref Frames
Format settings, CABAC : Yes
Format settings, Reference : 14 frames
Codec ID : V_MPEG4/ISO/AVC
Duration : 1 h 36 min
Bit rate : 1 001 kb/s
Width : 768 pixels
Height : 432 pixels
Display aspect ratio : 16:9
Frame rate mode : Constant
Frame rate : 24.000 FPS
Color space : YUV
Chroma subsampling : 4:2:0
Bit depth : 8 bits
Scan type : Progressive
Bits/(Pixel*Frame) : 0.126
Stream size : 687 MiB (92%)
Title : RIP_BY_-=DoMiNo=- | Open Matte
Writing library : x264 core 157 r2935 545de2f
Encoding settings : cabac=1 / ref=14 / deblock=1:-2:-2 / analyse=0x3:0x133 / me=umh / subme=11 / psy=1 / psy_rd=1.00:0.05 / mixed_ref=1 / me_range=48 / chroma_me=1 / trellis=2 / 8x8dct=1 / cqm=0 / deadzone=21,11 / fast_pskip=0 / chroma_qp_offset=-3 / threads=6 / lookahead_threads=1 / sliced_threads=0 / nr=0 / decimate=0 / interlaced=0 / bluray_compat=0 / constrained_intra=0 / bframes=12 / b_pyramid=2 / b_adapt=2 / b_bias=0 / direct=3 / weightb=1 / open_gop=0 / weightp=2 / keyint=240 / keyint_min=24 / scenecut=40 / intra_refresh=0 / rc=2pass / mbtree=0 / bitrate=1001 / ratetol=1.0 / qcomp=0.60 / qpmin=0 / qpmax=69 / qpstep=4 / cplxblur=20.0 / qblur=0.5 / ip_ratio=1.40 / pb_ratio=1.30 / aq=1:0.90
Language : English
Default : Yes
Forced : No
Color range : Limited
Color primaries : BT.709
Transfer characteristics : BT.709
Matrix coefficients : BT.709

Audio
ID : 2
Format : AAC LC SBR
Format/Info : Advanced Audio Codec Low Complexity with Spectral Band Replication
Commercial name : HE-AAC
Format settings : Implicit
Codec ID : A_AAC-2
Duration : 1 h 36 min
Bit rate : 80.0 kb/s
Channel(s) : 2 channels
Channel layout : L R
Sampling rate : 48.0 kHz
Frame rate : 23.438 FPS (2048 SPF)
Compression mode : Lossy
Stream size : 54.9 MiB (7%)
Title : DUB
Language : Russian
Default : Yes
Forced : No

Text #1
ID : 3
Format : UTF-8
Codec ID : S_TEXT/UTF8
Codec ID/Info : UTF-8 Plain Text
Duration : 1 h 28 min
Bit rate : 65 b/s
Count of elements : 760
Stream size : 42.2 KiB (0%)
Language : Russian
Default : No
Forced : No

Text #2
ID : 4
Format : UTF-8
Codec ID : S_TEXT/UTF8
Codec ID/Info : UTF-8 Plain Text
Duration : 1 h 28 min
Bit rate : 42 b/s
Count of elements : 923
Stream size : 27.4 KiB (0%)
Language : English
Default : No
Forced : No

Menu
00:00:00.000 : :Глава 1
00:00:49.750 : :Глава 2
00:08:54.583 : :Глава 3
00:18:27.250 : :Глава 4
00:25:53.000 : :Глава 5
00:30:47.041 : :Глава 6
00:40:05.750 : :Глава 7
00:46:03.208 : :Глава 8
00:54:29.208 : :Глава 9
01:02:45.958 : :Глава 10
01:13:35.333 : :Глава 11
01:22:02.125 : :Глава 12
01:29:43.541 : :Глава 13
 
Не забывайте говорить Спасибо. Не уходите с раздачи!   
Торрент: Зарегистрирован [13 май 2019, 18:51] Скачать торрент
Скачать торрент
[ Размер 15.67 КБ / Просмотров 3 ]
Статус:
Проверен
 
.torrent скачан: 0 раз
Хэш: aa8e5ee98459ef7dfce7e0ae21e7426374dc8d99
Размер: 743.94 МБ (780 080 956 байт)
Стать Автором раздачи
 
 
Раздал: 100 ГБ
Скачал: 0 байт
Ратио: Seed.
Сообщения: 131043
Зарегистрирован: 09 апр 2015, 23:00


  • Похожие торренты
    Ответы
    Просмотры
    Последнее сообщение

Вернуться в Зарубежные фильмы 2006-2010 года

Ресурс не предоставляет электронные версии произведений, а занимается лишь коллекционированием и каталогизацией ссылок, присылаемых и публикуемых на форуме нашими читателями. Если вы являетесь правообладателем какого-либо представленного материала и не желаете чтобы ссылка на него находилась в нашем каталоге, свяжитесь с нами и мы незамедлительно удалим её. Файлы для обмена на трекере предоставлены пользователями сайта, и администрация не несёт ответственности за их содержание. Просьба не заливать файлы, защищенные авторскими правами, а также файлы нелегального содержания!
cron