Век помрачения / L'âge des ténèbres (2007) DVDRip-AVC | P, P2

 
 Статистика раздачи 
Размер: 3.14 ГБ   |  Зарегистрирован: 12 май 2019, 21:57   |   .torrent скачан: 0 раз
Сидеров: 1  [ 0 байт/сек ]     Личеров: 0  [ 0 байт/сек ]  
  

Век помрачения / L'âge des ténèbres (2007) DVDRip-AVC | P, P2

Сообщение Lester » 12 май 2019, 22:42

Название: Век помрачения
Оригинальное название: L'âge des ténèbres
Год выхода: 2007
Страна: Канада, Франция
Студия: Cinémaginaire Inc., Mon Voisin Productions
Продолжительность: 01:39:28
Жанр: фэнтези, драма, комедия

Режиссер: Дени Аркан
В ролях: Марк Лабреш, Дайан Крюгер, Сильви Леонар, Каролин Нерон, Руфус Уэйнрайт, Эмма де Кон, Маша Гренон, Франсуаза Гратон, Розали Жюльен, Камилль Леонар Риу, ...

Перевод:
- Профессиональный (многоголосый, закадровый) Первый канал
- Профессиональный (двуголосый, закадровый) Сонатек R5 от «Настроение Video»
- Профессиональный (двуголосый, закадровый) НТВ+
- Субтитры

О фильме: В своих мечтах Жан-Марк — рыцарь в сверкающих доспехах, звезда сцены и экрана и преуспевающий писатель, к ногам и в постель которого падают женщины. На самом деле он — никто, чиновник, ничтожный муж, несостоятельный отец и тайный курильщик. Но Жан-Марк сопротивляется искушениям мира своих грез и намерен дать себе еще один шанс в реальном мире…



Кодек: x264
Качество: DVDRip-AVC
Видео: 1024x432, 3500 kbps, 25 fps
Аудио #1: AC-3, 2 ch, 192 kbps (Rus) - MVO Первый канал
Аудио #2: AC-3, 6 ch, 448 kbps (Rus) - DVO студия Сонатек R5
Аудио #3: AC-3, 2 ch, 192 kbps (Rus) - DVO НТВ+
Аудио #4: AC-3, 2 ch, 192 kbps (Fre)
Субтитры: русские, французские
Спасибо за исходник

x264 [info]: frame I:1046 Avg QP:16.61 size: 67731
x264 [info]: frame P:30704 Avg QP:19.01 size: 32199
x264 [info]: frame B:117451 Avg QP:20.85 size: 13204
x264 [info]: consecutive B-frames: 1.4% 2.5% 7.1% 16.2% 21.6% 33.0% 11.7% 1.7% 1.6% 2.0% 0.4% 0.1% 0.7%

Общее
Уникальный идентификатор : 209602482486109740100575922870973032762 (0x9DAFF84121078285AB355E6024EEE93A)
Полное имя : Век помрачения (L'âge des ténèbres) 2007 DVDRip.mkv
Формат : Matroska
Версия формата : Version 2
Размер файла : 3,14 Гбайт
Продолжительность : 1 ч. 39 м.
Общий поток : 4526 Кбит/сек
Дата кодирования : UTC 2019-05-12 17:50:43
Программа кодирования : mkvmerge v4.0.0 ('The Stars were mine') сборка от Jun 6 2010 16:18:42
Библиотека кодирования : libebml v1.0.0 + libmatroska v1.0.0

Видео
Идентификатор : 1
Формат : AVC
Формат/Информация : Advanced Video Codec
Профиль формата : High@L4.1
Параметр CABAC формата : Да
Параметр ReFrames формата : 10 кадров
Идентификатор кодека : V_MPEG4/ISO/AVC
Продолжительность : 1 ч. 39 м.
Битрейт : 3500 Кбит/сек
Ширина : 1024 пикселя
Высота : 432 пикселя
Соотношение сторон : 2,40:1
Режим частоты кадров : Постоянный
Частота кадров : 25,000 кадров/сек
Цветовое пространство : YUV
Субдискретизация насыщенности : 4:2:0
Битовая глубина : 8 бит
Тип развёртки : Прогрессивная
Бит/(Пиксели*Кадры) : 0.316
Размер потока : 2,37 Гбайт (75%)
Библиотека кодирования : x264 core 146 r2538 121396c
Настройки программы : cabac=1 / ref=10 / deblock=1:-1:-1 / analyse=0x3:0x133 / me=umh / subme=11 / psy=1 / psy_rd=1.00:0.00 / mixed_ref=1 / me_range=32 / chroma_me=1 / trellis=2 / 8x8dct=1 / cqm=0 / deadzone=21,11 / fast_pskip=0 / chroma_qp_offset=-2 / threads=12 / lookahead_threads=2 / sliced_threads=0 / nr=0 / decimate=0 / interlaced=0 / bluray_compat=0 / constrained_intra=0 / bframes=12 / b_pyramid=2 / b_adapt=2 / b_bias=0 / direct=3 / weightb=1 / open_gop=0 / weightp=2 / keyint=250 / keyint_min=25 / scenecut=40 / intra_refresh=0 / rc=2pass / mbtree=0 / bitrate=3500 / ratetol=1.0 / qcomp=0.60 / qpmin=0 / qpmax=69 / qpstep=4 / cplxblur=20.0 / qblur=0.5 / ip_ratio=1.40 / pb_ratio=1.30 / aq=1:0.80
Язык : French
Default : Нет
Forced : Нет

Аудио #1
Идентификатор : 2
Формат : AC-3
Формат/Информация : Audio Coding 3
Расширение режима : CM (complete main)
Параметр Endianness формата : Big
Идентификатор кодека : A_AC3
Продолжительность : 1 ч. 39 м.
Вид битрейта : Постоянный
Битрейт : 192 Кбит/сек
Каналы : 2 канала
Расположение каналов : Front: L R
Частота : 48,0 КГц
Частота кадров : 31,250 кадров/сек (1536 spf)
Метод сжатия : С потерями
Размер потока : 137 Мбайт (4%)
Заголовок : MVO Первый канал
Язык : Russian
Default : Нет
Forced : Нет

Аудио #2
Идентификатор : 3
Формат : AC-3
Формат/Информация : Audio Coding 3
Расширение режима : CM (complete main)
Параметр Endianness формата : Big
Идентификатор кодека : A_AC3
Продолжительность : 1 ч. 39 м.
Вид битрейта : Постоянный
Битрейт : 448 Кбит/сек
Каналы : 6 каналов
Расположение каналов : Front: L C R, Side: L R, LFE
Частота : 48,0 КГц
Частота кадров : 31,250 кадров/сек (1536 spf)
Метод сжатия : С потерями
Размер потока : 319 Мбайт (10%)
Заголовок : DVO студия Сонатек R5 «Настроение Video»
Язык : Russian
Default : Нет
Forced : Нет

Аудио #3
Идентификатор : 4
Формат : AC-3
Формат/Информация : Audio Coding 3
Расширение режима : CM (complete main)
Параметр Endianness формата : Big
Идентификатор кодека : A_AC3
Продолжительность : 1 ч. 39 м.
Вид битрейта : Постоянный
Битрейт : 192 Кбит/сек
Каналы : 2 канала
Расположение каналов : Front: L R
Частота : 48,0 КГц
Частота кадров : 31,250 кадров/сек (1536 spf)
Метод сжатия : С потерями
Размер потока : 137 Мбайт (4%)
Заголовок : DVO НТВ+
Язык : Russian
Default : Нет
Forced : Нет

Аудио #4
Идентификатор : 5
Формат : AC-3
Формат/Информация : Audio Coding 3
Расширение режима : CM (complete main)
Параметр Endianness формата : Big
Идентификатор кодека : A_AC3
Продолжительность : 1 ч. 39 м.
Вид битрейта : Постоянный
Битрейт : 192 Кбит/сек
Каналы : 2 канала
Расположение каналов : Front: L R
Частота : 48,0 КГц
Частота кадров : 31,250 кадров/сек (1536 spf)
Метод сжатия : С потерями
Размер потока : 137 Мбайт (4%)
Язык : French
Default : Нет
Forced : Нет

Текст #1
Идентификатор : 6
Формат : UTF-8
Идентификатор кодека : S_TEXT/UTF8
Идентификатор кодека/Информация : UTF-8 Plain Text
Язык : Russian
Default : Нет
Forced : Нет

Текст #2
Идентификатор : 7
Формат : UTF-8
Идентификатор кодека : S_TEXT/UTF8
Идентификатор кодека/Информация : UTF-8 Plain Text
Язык : French
Default : Нет
Forced : Нет

Меню
00:00:00.000 : en:Chapter 01
00:04:51.200 : en:Chapter 02
00:09:13.800 : en:Chapter 03
00:13:18.200 : en:Chapter 04
00:17:44.960 : en:Chapter 05
00:22:00.800 : en:Chapter 06
00:26:02.080 : en:Chapter 07
00:31:07.840 : en:Chapter 08
00:35:51.760 : en:Chapter 09
00:39:47.840 : en:Chapter 10
00:44:35.400 : en:Chapter 11
00:49:36.480 : en:Chapter 12
00:52:46.800 : en:Chapter 13
00:57:18.760 : en:Chapter 14
01:00:32.200 : en:Chapter 15
01:04:36.600 : en:Chapter 16
01:07:54.720 : en:Chapter 17
01:12:29.280 : en:Chapter 18
01:15:38.040 : en:Chapter 19
01:19:44.520 : en:Chapter 20
01:23:43.200 : en:Chapter 21
01:28:01.120 : en:Chapter 22
01:32:48.160 : en:Chapter 23
01:35:16.360 : en:Chapter 24


 
Не забывайте говорить Спасибо. Не уходите с раздачи!   
Торрент: Зарегистрирован [12 май 2019, 21:57] Скачать торрент
Скачать торрент
[ Размер 16.65 КБ / Просмотров 4 ]
Статус:
Проверен
 
.torrent скачан: 0 раз
Хэш: bd5e7cb56f6aff78c55f44dcebfc8947e4610f26
Размер: 3.14 ГБ (3 376 249 448 байт)
Стать Автором раздачи
 
 
Раздал: 100 ГБ
Скачал: 0 байт
Ратио: Seed.
Сообщения: 131043
Зарегистрирован: 09 апр 2015, 23:00


  • Похожие торренты
    Ответы
    Просмотры
    Последнее сообщение

Вернуться в Зарубежные фильмы 2006-2010 года

Ресурс не предоставляет электронные версии произведений, а занимается лишь коллекционированием и каталогизацией ссылок, присылаемых и публикуемых на форуме нашими читателями. Если вы являетесь правообладателем какого-либо представленного материала и не желаете чтобы ссылка на него находилась в нашем каталоге, свяжитесь с нами и мы незамедлительно удалим её. Файлы для обмена на трекере предоставлены пользователями сайта, и администрация не несёт ответственности за их содержание. Просьба не заливать файлы, защищенные авторскими правами, а также файлы нелегального содержания!
cron