Мертвая девочка / The Dead Girl (2006) BDRemux 1080p | P

 
 Статистика раздачи 
Размер: 20.86 ГБ   |  Зарегистрирован: 12 май 2019, 20:50   |   .torrent скачан: 0 раз
Сидеров: 1  [ 0 байт/сек ]     Личеров: 0  [ 0 байт/сек ]  
  

Мертвая девочка / The Dead Girl (2006) BDRemux 1080p | P

Сообщение Lester » 12 май 2019, 21:19

Информация о фильме
Название: Мертвая девочка
Оригинальное название: The Dead Girl
Год выхода: 2006
Жанр: триллер, драма, криминал, детектив
Режиссер: Карен Монкрифф
В ролях: Пайпер Лори, Тони Коллетт, Бриттани Мёрфи, Дон Смит, Марша Гей Харден, Майкл Рэйссис, Роуз Бирн, Эрл Кэрролл, Дороти Битти, Ева Лосет, Джеймс Франко, Джованни Рибизи

О фильме:
Тело Кристы находит Арден, одинокая женщина, присматривающая за своей весьма раздражительной матерью. Параллельно идет история Женщины по имени Рут, которая находится в очень противоречивых отношениях со своим мужем после того как обнаруживает связь между ним и убийством Кристы. И, наконец, Мелора — мать, ищущая ответы на вопросы проблемной жизни ее безудержной дочери Кристы и находящая помощь от другой такой же проблемной девушки.

Страна: США
Студия: Bruin Grip Services, Lakeshore Entertainment
Продолжительность: 01:34:00
Перевод: Профессиональный многоголосый,закадровый

Файл
Кодек: h.264
Качество: BDRemux 1080p
Видео: MPEG-4 AVC, 27800 Кбит/с, 1920x1080, 24,000 кадр/с
Звук:
Русский (AC3, 6 ch, 448 Кбит/с) / Профессиональный многоголосый
Русский (AC3, 2 ch, 192 Кбит/с) / Профессиональный многоголосый
Английский (DTS-HD MA, 6 ch, 3617 Кбит/с)
Субтитры: Английские (full)

General
Unique ID : 50075730232782704702184817203912017229 (0x25AC3C1E18B95D6350E6DB2A55C6854D)
Complete name : C:UsersPublicVideosSample VideosFilmyThe.Dead.Girl.2006.BDRemux.1080p.by.Silverok.mkv
Format : Matroska
Format version : Version 4
File size : 20.9 GiB
Duration : 1 h 34 min
Overall bit rate mode : Variable
Overall bit rate : 31.8 Mb/s
Movie name : The.Dead.Girl.2006.BDRemux.1080p by Silverok
Encoded date : UTC 2019-05-12 17:16:59
Writing application : mkvmerge v33.0.0 ('A Little Bit of Madness') 64-bit
Writing library : libebml v1.3.7 + libmatroska v1.5.0
Cover : Yes
Attachments : cover.jpg

Video
ID : 1
Format : AVC
Format/Info : Advanced Video Codec
Format profile : High@L4.1
Format settings : CABAC / 4 Ref Frames
Format settings, CABAC : Yes
Format settings, RefFrames : 4 frames
Codec ID : V_MPEG4/ISO/AVC
Duration : 1 h 34 min
Bit rate mode : Variable
Bit rate : 27.8 Mb/s
Maximum bit rate : 36.0 Mb/s
Width : 1 920 pixels
Height : 1 080 pixels
Display aspect ratio : 16:9
Frame rate mode : Constant
Frame rate : 24.000 FPS
Standard : NTSC
Color space : YUV
Chroma subsampling : 4:2:0
Bit depth : 8 bits
Scan type : Progressive
Bits/(Pixel*Frame) : 0.558
Stream size : 18.2 GiB (87%)
Title : BDRemux.1080p by Silverok
Default : Yes
Forced : No
Color range : Limited
Color primaries : BT.709
Transfer characteristics : BT.709
Matrix coefficients : BT.709

Audio #1
ID : 2
Format : AC-3
Format/Info : Audio Coding 3
Commercial name : Dolby Digital
Codec ID : A_AC3
Duration : 1 h 34 min
Bit rate mode : Constant
Bit rate : 448 kb/s
Channel(s) : 6 channels
Channel layout : L R C LFE Ls Rs
Sampling rate : 48.0 kHz
Frame rate : 31.250 FPS (1536 SPF)
Bit depth : 16 bits
Compression mode : Lossy
Stream size : 301 MiB (1%)
Title : MVO
Language : Russian
Service kind : Complete Main
Default : Yes
Forced : No

Audio #2
ID : 3
Format : AC-3
Format/Info : Audio Coding 3
Commercial name : Dolby Digital
Codec ID : A_AC3
Duration : 1 h 33 min
Bit rate mode : Constant
Bit rate : 224 kb/s
Channel(s) : 2 channels
Channel layout : L R
Sampling rate : 48.0 kHz
Frame rate : 31.250 FPS (1536 SPF)
Bit depth : 16 bits
Compression mode : Lossy
Stream size : 151 MiB (1%)
Title : MVO
Language : Russian
Service kind : Complete Main
Default : No
Forced : No

Audio #3
ID : 4
Format : DTS XLL
Format/Info : Digital Theater Systems
Commercial name : DTS-HD Master Audio
Codec ID : A_DTS
Duration : 1 h 34 min
Bit rate mode : Variable
Bit rate : 3 322 kb/s
Channel(s) : 6 channels
Channel layout : C L R Ls Rs LFE
Sampling rate : 48.0 kHz
Frame rate : 93.750 FPS (512 SPF)
Bit depth : 24 bits
Compression mode : Lossless
Stream size : 2.18 GiB (10%)
Language : English
Default : No
Forced : No

Text
ID : 5
Format : UTF-8
Codec ID : S_TEXT/UTF8
Codec ID/Info : UTF-8 Plain Text
Duration : 1 h 23 min
Bit rate : 44 b/s
Count of elements : 929
Stream size : 27.3 KiB (0%)
Title : Full
Language : English
Default : Yes
Forced : No

Menu
00:00:00.000 : en:00:00:00.000
00:03:56.041 : en:00:03:56.041
00:23:17.708 : en:00:23:17.708
00:39:26.458 : en:00:39:26.458
00:55:46.875 : en:00:55:46.875
01:11:36.250 : en:01:11:36.250
01:34:00.208 : en:01:34:00.208
 
Не забывайте говорить Спасибо. Не уходите с раздачи!   
Торрент: Зарегистрирован [12 май 2019, 20:50] Скачать торрент
Скачать торрент
[ Размер 53.05 КБ / Просмотров 3 ]
Статус:
Проверен
 
.torrent скачан: 0 раз
Хэш: 784c52df201183c30c31aedaf33f0dd19770246e
Размер: 20.86 ГБ (22 399 500 520 байт)
Стать Автором раздачи
 
 
Раздал: 100 ГБ
Скачал: 0 байт
Ратио: Seed.
Сообщения: 131043
Зарегистрирован: 09 апр 2015, 23:00


  • Похожие торренты
    Ответы
    Просмотры
    Последнее сообщение

Вернуться в Зарубежные фильмы 2006-2010 года

Ресурс не предоставляет электронные версии произведений, а занимается лишь коллекционированием и каталогизацией ссылок, присылаемых и публикуемых на форуме нашими читателями. Если вы являетесь правообладателем какого-либо представленного материала и не желаете чтобы ссылка на него находилась в нашем каталоге, свяжитесь с нами и мы незамедлительно удалим её. Файлы для обмена на трекере предоставлены пользователями сайта, и администрация не несёт ответственности за их содержание. Просьба не заливать файлы, защищенные авторскими правами, а также файлы нелегального содержания!
cron