Одержимость / Obsessed (2009) HDRip-AVC | P

 
 Статистика раздачи 
Размер: 746.81 МБ   |  Зарегистрирован: 12 май 2019, 14:36   |   .torrent скачан: 0 раз
Сидеров: 1  [ 0 байт/сек ]     Личеров: 0  [ 0 байт/сек ]  
  

Одержимость / Obsessed (2009) HDRip-AVC | P

Сообщение Lester » 12 май 2019, 15:07

Информация о фильме
Название: Одержимость
Оригинальное название: Obsessed
Год выхода: 2009
Жанр: триллер, драма, криминал
Режиссер: Стив Шилл
В ролях: Идрис Эльба, Бейонсе Ноулз, Эли Лартер, Джерри О`Коннелл, Бонни Перлман, Кристин Лахти, Натан Майерс, Николас Майерс, Мэттью Хэмпфри, Скаут Тэйлор-Комптон

О фильме:
Новая секретарша, пришедшая на работу в финансовую компанию, начинает испытывать непреодолимую страсть к успешному и женатому сотруднику. История не новая, но конец, как всегда, непредсказуем…

Страна: США
Студия: Screen Gems
Продолжительность: 01:48:22
Перевод: Профессиональный (многоголосый, закадровый)

Файл
Кодек: H.264
Качество: HDRip-AVC
Видео: 748x312, 23.976 fps, 885 kb/s
Звук: AAC, 2 ch, 76 kbps
General
Unique ID : 309957688314761597634505112773446447827 (0xE92FADE958DCED3873AD6E170A91B2D3)
Complete name : C:UsersПашаDownloadsОдержимость.mkv
Format : Matroska
Format version : Version 4
File size : 747 MiB
Duration : 1 h 48 min
Overall bit rate : 963 kb/s
Encoded date : UTC 2019-05-12 08:53:15
Writing application : mkvmerge v33.1.0 ('Primrose') 64-bit
Writing library : libebml v1.3.7 + libmatroska v1.5.0
Cover : Yes
Attachments : cover.jpg

Video
ID : 1
Format : AVC
Format/Info : Advanced Video Codec
Format profile : High@L4.1
Format settings : CABAC / 12 Ref Frames
Format settings, CABAC : Yes
Format settings, ReFrames : 12 frames
Codec ID : V_MPEG4/ISO/AVC
Duration : 1 h 48 min
Bit rate : 885 kb/s
Width : 748 pixels
Height : 312 pixels
Display aspect ratio : 2.40:1
Frame rate mode : Constant
Frame rate : 23.976 (24000/1001) FPS
Color space : YUV
Chroma subsampling : 4:2:0
Bit depth : 8 bits
Scan type : Progressive
Bits/(Pixel*Frame) : 0.158
Stream size : 686 MiB (92%)
Writing library : x264 core 146 r2538 121396c
Encoding settings : cabac=1 / ref=12 / deblock=1:-3:-3 / analyse=0x3:0x113 / me=umh / subme=10 / psy=1 / psy_rd=1.00:0.00 / mixed_ref=1 / me_range=32 / chroma_me=1 / trellis=2 / 8x8dct=1 / cqm=0 / deadzone=21,11 / fast_pskip=0 / chroma_qp_offset=-3 / threads=8 / lookahead_threads=1 / sliced_threads=0 / nr=0 / decimate=0 / interlaced=0 / bluray_compat=0 / constrained_intra=0 / bframes=12 / b_pyramid=2 / b_adapt=2 / b_bias=0 / direct=3 / weightb=1 / open_gop=0 / weightp=2 / keyint=240 / keyint_min=23 / scenecut=40 / intra_refresh=0 / rc_lookahead=40 / rc=2pass / mbtree=1 / bitrate=885 / ratetol=1.0 / qcomp=0.60 / qpmin=0 / qpmax=69 / qpstep=4 / cplxblur=20.0 / qblur=0.5 / vbv_maxrate=14000 / vbv_bufsize=14000 / nal_hrd=none / filler=0 / ip_ratio=1.40 / aq=1:1.00
Language : English
Default : Yes
Forced : No

Audio
ID : 2
Format : AAC LC
Format/Info : Advanced Audio Codec Low Complexity
Codec ID : A_AAC-2
Duration : 1 h 48 min
Bit rate : 76.0 kb/s
Channel(s) : 2 channels
Channel layout : L R
Sampling rate : 48.0 kHz
Frame rate : 46.875 FPS (1024 SPF)
Compression mode : Lossy
Delay relative to video : 9 ms
Stream size : 58.9 MiB (8%)
Language : Russian
Default : Yes
Forced : No



Релиз от: donadar
 
Не забывайте говорить Спасибо. Не уходите с раздачи!   
Торрент: Зарегистрирован [12 май 2019, 14:36] Скачать торрент
Скачать торрент
[ Размер 15.45 КБ / Просмотров 0 ]
Статус:
Проверен
 
.torrent скачан: 0 раз
Хэш: 1ca07331ea87ba35ac892c28e70a992968566fd8
Размер: 746.81 МБ (783 089 500 байт)
Стать Автором раздачи
 
 
Раздал: 100 ГБ
Скачал: 0 байт
Ратио: Seed.
Сообщения: 130822
Зарегистрирован: 09 апр 2015, 23:00


  • Похожие торренты
    Ответы
    Просмотры
    Последнее сообщение

Вернуться в Зарубежные фильмы 2006-2010 года

Ресурс не предоставляет электронные версии произведений, а занимается лишь коллекционированием и каталогизацией ссылок, присылаемых и публикуемых на форуме нашими читателями. Если вы являетесь правообладателем какого-либо представленного материала и не желаете чтобы ссылка на него находилась в нашем каталоге, свяжитесь с нами и мы незамедлительно удалим её. Файлы для обмена на трекере предоставлены пользователями сайта, и администрация не несёт ответственности за их содержание. Просьба не заливать файлы, защищенные авторскими правами, а также файлы нелегального содержания!
cron