Молот / Hamill / The Hammer (2010) HDRip-AVC | P2

 
 Статистика раздачи 
Размер: 2.56 ГБ   |  Зарегистрирован: 12 май 2019, 14:35   |   .torrent скачан: 0 раз
Сидеров: 1  [ 0 байт/сек ]     Личеров: 0  [ 0 байт/сек ]  
  

Молот / Hamill / The Hammer (2010) HDRip-AVC | P2

Сообщение Lester » 12 май 2019, 15:07

Информация о фильме
Название: Молот
Оригинальное название: Hamill / The Hammer
Год выхода: 2010
Жанр: драма, биография, спорт
Режиссер: Орен Каплан
В ролях: Расселл Харвард, Рэймонд Дж. Бэрри, Шошанна Штерн, Майкл Энтони, Кортни Хэлверсон, Сьюзэн Гибни, Джозеф МакКелхир, Эбен Костбар, Рич Франклин, Стивен Додд

О фильме:
Родиться глухим — значит быть инвалидом, неполноценным. Так считает большинство людей, но только не дедушка Мэтта. Он повернул этот недуг внука в его пользу, научив ребенка жить с мыслью, что он особенный и поэтому может справиться с тем, с чем не могут справиться другие, способен победить тех, кого считают непобедимыми. Спортивная драма, основанная на жизни реального человека — Мэтта «Молота» Хэмилла, американского бойца смешанных единоборств и профессионального борца, который, несмотря на врождённую глухоту, смог стать трёхкратным чемпионом и личностью мирового масштаба.

Страна: США
Студия: Fifth Year Productions, Film Harvest, Sawhorse Productions, TapouT Films
Продолжительность: 01:48:53
Перевод: Профессиональный (двухголосый, закадровый)

Файл
Кодек: x264
Качество: HDRip-AVC
Видео: 1120x476 (2.35:1), 23.976fps, MPEG-4 AVC, ~2 728 kb/s, 0.213 bit/pixel
Звук:
Audio 1: Dolby AC3 48000Hz stereo 192kbps [A: DVO [rus] (ac3, 48000 Hz, stereo, 192 kb/s)]
Audio 2: Dolby AC3 48000Hz 6ch 448kbps [A: Original [eng] (ac3, 48000 Hz, 5.1, 448 kb/s)]
Субтитры: Английские

General
Unique ID : 312839723730323051714573163296782944764 (0xEB5ABD3A6A7891E4C470DBCFF8D209FC)
Complete name : Молот - The Hammer (2010) HDRip-AVC.mkv
Format : Matroska
Format version : Version 4 / Version 2
File size : 2.56 GiB
Duration : 1 h 48 min
Overall bit rate : 3 371 kb/s
Movie name : The Hammer (2010)
Encoded date : UTC 2019-05-09 05:36:06
Writing application : mkvmerge v33.1.0 ('Primrose') 64-bit
Writing library : libebml v1.3.7 + libmatroska v1.5.0

Video
ID : 1
Format : AVC
Format/Info : Advanced Video Codec
Format profile : High@L4.1
Format settings, CABAC : Yes
Format settings, RefFrames : 9 frames
Codec ID : V_MPEG4/ISO/AVC
Duration : 1 h 48 min
Bit rate : 2 728 kb/s
Width : 1 120 pixels
Height : 476 pixels
Display aspect ratio : 2.35:1
Frame rate mode : Constant
Frame rate : 23.976 (24000/1001) FPS
Color space : YUV
Chroma subsampling : 4:2:0
Bit depth : 8 bits
Scan type : Progressive
Bits/(Pixel*Frame) : 0.213
Stream size : 2.07 GiB (81%)
Writing library : x264 core 157 r2969 d4099dd
Encoding settings : cabac=1 / ref=9 / deblock=1:-1:-1 / analyse=0x3:0x113 / me=umh / subme=11 / psy=1 / psy_rd=1.00:0.00 / mixed_ref=1 / me_range=32 / chroma_me=1 / trellis=2 / 8x8dct=1 / cqm=0 / deadzone=21,11 / fast_pskip=1 / chroma_qp_offset=-2 / threads=6 / lookahead_threads=1 / sliced_threads=0 / nr=0 / decimate=1 / interlaced=0 / bluray_compat=0 / constrained_intra=0 / bframes=11 / b_pyramid=2 / b_adapt=2 / b_bias=0 / direct=1 / weightb=1 / open_gop=0 / weightp=2 / keyint=240 / keyint_min=23 / scenecut=40 / intra_refresh=0 / rc_lookahead=60 / rc=crf / mbtree=1 / crf=15.0 / qcomp=0.60 / qpmin=0 / qpmax=69 / qpstep=4 / vbv_maxrate=50000 / vbv_bufsize=62500 / crf_max=0.0 / nal_hrd=none / filler=0 / ip_ratio=1.40 / aq=1:0.90
Language : English
Default : Yes
Forced : No

Audio #1
ID : 2
Format : AC-3
Format/Info : Audio Coding 3
Format settings, Endianness : Big
Codec ID : A_AC3
Duration : 1 h 48 min
Bit rate mode : Constant
Bit rate : 192 kb/s
Channel(s) : 2 channels
Channel positions : Front: L R
Sampling rate : 48.0 kHz
Frame rate : 31.250 FPS (1536 SPF)
Bit depth : 16 bits
Compression mode : Lossy
Stream size : 150 MiB (6%)
Title : DVO
Language : Russian
Service kind : Complete Main
Default : Yes
Forced : No

Audio #2
ID : 3
Format : AC-3
Format/Info : Audio Coding 3
Format settings, Endianness : Big
Codec ID : A_AC3
Duration : 1 h 48 min
Bit rate mode : Constant
Bit rate : 448 kb/s
Channel(s) : 6 channels
Channel positions : Front: L C R, Side: L R, LFE
Sampling rate : 48.0 kHz
Frame rate : 31.250 FPS (1536 SPF)
Bit depth : 16 bits
Compression mode : Lossy
Stream size : 349 MiB (13%)
Title : Original
Language : English
Service kind : Complete Main
Default : No
Forced : No

Text #1
ID : 4
Format : UTF-8
Codec ID : S_TEXT/UTF8
Codec ID/Info : UTF-8 Plain Text
Duration : 1 h 12 min
Bit rate : 13 b/s
Count of elements : 273
Stream size : 7.17 KiB (0%)
Title : Forced
Language : English
Default : No
Forced : No

Text #2
ID : 5
Format : UTF-8
Codec ID : S_TEXT/UTF8
Codec ID/Info : UTF-8 Plain Text
Duration : 1 h 42 min
Bit rate : 36 b/s
Count of elements : 1071
Stream size : 27.2 KiB (0%)
Title : SDH
Language : English
Default : No
Forced : No

Text #3
ID : 6
Format : UTF-8
Codec ID : S_TEXT/UTF8
Codec ID/Info : UTF-8 Plain Text
Duration : 1 h 42 min
Bit rate : 35 b/s
Count of elements : 1049
Stream size : 26.8 KiB (0%)
Language : English
Default : No
Forced : No

Menu
00:00:00.000 : en:00:00:00.000
00:08:06.111 : en:00:08:06.111
00:18:11.590 : en:00:18:11.590
00:29:02.699 : en:00:29:02.699
00:34:42.330 : en:00:34:42.330
00:45:43.824 : en:00:45:43.824
00:52:41.367 : en:00:52:41.367
01:03:52.370 : en:01:03:52.370
01:11:23.112 : en:01:11:23.112
01:22:19.434 : en:01:22:19.434
01:32:24.789 : en:01:32:24.789
01:44:25.259 : en:01:44:25.259

 
Не забывайте говорить Спасибо. Не уходите с раздачи!   
Торрент: Зарегистрирован [12 май 2019, 14:35] Скачать торрент
Скачать торрент
[ Размер 13.8 КБ / Просмотров 0 ]
Статус:
Проверен
 
.torrent скачан: 0 раз
Хэш: 42db16fad4d9824cbab219eefce487367a22aa23
Размер: 2.56 ГБ (2 752 305 855 байт)
Стать Автором раздачи
 
 
Раздал: 100 ГБ
Скачал: 0 байт
Ратио: Seed.
Сообщения: 130822
Зарегистрирован: 09 апр 2015, 23:00


  • Похожие торренты
    Ответы
    Просмотры
    Последнее сообщение

Вернуться в Зарубежные фильмы 2006-2010 года

Ресурс не предоставляет электронные версии произведений, а занимается лишь коллекционированием и каталогизацией ссылок, присылаемых и публикуемых на форуме нашими читателями. Если вы являетесь правообладателем какого-либо представленного материала и не желаете чтобы ссылка на него находилась в нашем каталоге, свяжитесь с нами и мы незамедлительно удалим её. Файлы для обмена на трекере предоставлены пользователями сайта, и администрация не несёт ответственности за их содержание. Просьба не заливать файлы, защищенные авторскими правами, а также файлы нелегального содержания!
cron