Хеллбой II: Золотая армия / Hellboy II: The Golden Army (2008) BDRip 1080p | D, P, A | Remastered

 
 Статистика раздачи 
Размер: 14.77 ГБ   |  Зарегистрирован: 11 май 2019, 14:56   |   .torrent скачан: 0 раз
Сидеров: 1  [ 0 байт/сек ]     Личеров: 0  [ 0 байт/сек ]  
  

Хеллбой II: Золотая армия / Hellboy II: The Golden Army (2008) BDRip 1080p | D, P, A | Remastered

Сообщение Lester » 11 май 2019, 15:42

Информация о фильме
Название: Хеллбой II: Золотая армия
Оригинальное название: Hellboy II: The Golden Army
Год выхода: 2008
Жанр: Фантастика, фэнтези, боевик, приключения, супергерой
Режиссер: Гильермо дель Торо
В ролях: Рон Перлман, Сэлма Блэр, Даг Джонс, Сет МакФарлейн, Люк Госс, Анна Уолтон, Джеффри Тэмбор, Джон Хёрт, Брайан Стил

О фильме:
После того как древнее перемирие между человечеством и тайным миром было нарушено, на Земле вот-вот разверзнется ад. Безжалостный лидер, вхожий в оба мира, бросает вызов своей крови и пробуждает на свет неодолимую армию чудовищ. Настало время самому Хэллбою сразиться с беспощадным диктатором и его воинами. Вместе со своей пополняющей ряды командой «Бюро Паранормальных Исследований и Развития» он будет бороздить границы двух миров — нашего и скрытого, где самые невероятные существа обретают плоть. Хэллбою, порожденному обоими мирами, но не принадлежащему ни одному из них, предстоит выбирать между жизнью, которую он знает, и неизвестностью новой судьбы.



Страна: США, Германия
Студия: Universal Pictures, Dark Horse Entertainment, Internationale Filmproduktion Eagle, Lawrence Gordon Productions
Продолжительность: 01:59:40
Перевод: Дублированный, профессиональный многоголосый, авторский

Файл
Кодек: x.264
Качество: BDRip 1080p | Hellboy.II.The.Golden.Army.2008.REMASTERED.1080p.BluRay.x264.DTS-SWTYBLZ
Видео: MPEG-4 AVC, 13.5 Mбит/с, 1920x1038, 23.976 кадр/с
Аудио #1: Русский (АС3, 6ch, 448 Кбит/с, 48.0 KHz) Профессиональный (полное дублирование) Blu-ray CEE
Аудио #2: Русский (АС3, 6ch, 448 Кбит/с, 48.0 KHz) Профессиональный (многоголосый, закадровый) Cтудия "Kravec"
Аудио #3: Русский (АС3, 6ch, 448 Кбит/с, 48.0 KHz) Авторский (одноголосый, закадровый) А.Гаврилов
Аудио #4: Русский (АС3, 6ch, 448 Кбит/с, 48.0 KHz) Авторский (одноголосый, закадровый) Ю.Живов
Аудио #5: Русский (АС3, 6ch, 448 Кбит/с, 48.0 KHz) Авторский (одноголосый, закадровый) В.Королёв
Аудио #6: Украинский (АС3, 6ch, 384 Кбит/с, 48.0 KHz) Дублированный
Аудио #7: Английский (DTS, 6ch, 1509 Кбит/с, 48.0 KHz)
Субтитры: Русские, английские (*srt)
Источник: Hellboy.II.The.Golden.Army.2008.REMASTERED.1080p.BluRay.x264.DTS-SWTYBLZ
General
Unique ID : 196615612530660161131377530928383568782 (0x93EACA214DE837448FD31DC31CD2AB8E)
Complete name : Hellboy.II.The.Golden.Army.2008.BDRip.1080p.mkv
Format : Matroska
Format version : Version 4 / Version 2
File size : 14.8 GiB
Duration : 1 h 59 min
Overall bit rate : 17.7 Mb/s
Encoded date : UTC 2019-05-09 22:47:35
Writing application : mkvmerge v7.1.0 ('Good Love') 64bit built on Jul 27 2014 13:06:55
Writing library : libebml v1.3.0 + libmatroska v1.4.1

Video
ID : 1
Format : AVC
Format/Info : Advanced Video Codec
Format profile : High@L4.1
Format settings, CABAC : Yes
Format settings, RefFrames : 4 frames
Codec ID : V_MPEG4/ISO/AVC
Duration : 1 h 59 min
Bit rate : 13.5 Mb/s
Width : 1 920 pixels
Height : 1 038 pixels
Display aspect ratio : 1.85:1
Frame rate mode : Constant
Frame rate : 23.976 (24000/1001) FPS
Color space : YUV
Chroma subsampling : 4:2:0
Bit depth : 8 bits
Scan type : Progressive
Bits/(Pixel*Frame) : 0.283
Stream size : 11.3 GiB (77%)
Writing library : x264 core 157 r2935 545de2f
Encoding settings : cabac=1 / ref=4 / deblock=1:-1:-1 / analyse=0x3:0x133 / me=umh / subme=10 / psy=1 / psy_rd=1.00:0.15 / mixed_ref=1 / me_range=48 / chroma_me=1 / trellis=2 / 8x8dct=1 / cqm=0 / deadzone=21,11 / fast_pskip=1 / chroma_qp_offset=-3 / threads=32 / lookahead_threads=5 / sliced_threads=0 / nr=0 / decimate=0 / interlaced=0 / bluray_compat=0 / constrained_intra=0 / bframes=8 / b_pyramid=2 / b_adapt=2 / b_bias=0 / direct=3 / weightb=1 / open_gop=0 / weightp=2 / keyint=250 / keyint_min=23 / scenecut=40 / intra_refresh=0 / rc_lookahead=60 / rc=crf / mbtree=1 / crf=16.0 / qcomp=0.60 / qpmin=0 / qpmax=69 / qpstep=4 / ip_ratio=1.40 / aq=1:1.00
Language : English
Default : Yes
Forced : No

Audio #1
ID : 2
Format : AC-3
Format/Info : Audio Coding 3
Format settings, Endianness : Big
Codec ID : A_AC3
Duration : 1 h 59 min
Bit rate mode : Constant
Bit rate : 448 kb/s
Channel(s) : 6 channels
Channel positions : Front: L C R, Side: L R, LFE
Sampling rate : 48.0 kHz
Frame rate : 31.250 FPS (1536 SPF)
Bit depth : 16 bits
Compression mode : Lossy
Stream size : 383 MiB (3%)
Title : Дублированный (Blu-ray CEE)
Language : Russian
Service kind : Complete Main
Default : Yes
Forced : No

Audio #2
ID : 3
Format : AC-3
Format/Info : Audio Coding 3
Format settings, Endianness : Big
Codec ID : A_AC3
Duration : 1 h 59 min
Bit rate mode : Constant
Bit rate : 448 kb/s
Channel(s) : 6 channels
Channel positions : Front: L C R, Side: L R, LFE
Sampling rate : 48.0 kHz
Frame rate : 31.250 FPS (1536 SPF)
Bit depth : 16 bits
Compression mode : Lossy
Stream size : 384 MiB (3%)
Title : Профессиональный многоголосый (студия "Kravec")
Language : Russian
Service kind : Complete Main
Default : No
Forced : No

Audio #3
ID : 4
Format : AC-3
Format/Info : Audio Coding 3
Format settings, Endianness : Big
Codec ID : A_AC3
Duration : 1 h 59 min
Bit rate mode : Constant
Bit rate : 448 kb/s
Channel(s) : 6 channels
Channel positions : Front: L C R, Side: L R, LFE
Sampling rate : 48.0 kHz
Frame rate : 31.250 FPS (1536 SPF)
Bit depth : 16 bits
Compression mode : Lossy
Stream size : 384 MiB (3%)
Title : Авторский | (А.Гаврилов)
Language : Russian
Service kind : Complete Main
Default : No
Forced : No

Audio #4
ID : 5
Format : AC-3
Format/Info : Audio Coding 3
Format settings, Endianness : Big
Codec ID : A_AC3
Duration : 1 h 59 min
Bit rate mode : Constant
Bit rate : 448 kb/s
Channel(s) : 6 channels
Channel positions : Front: L C R, Side: L R, LFE
Sampling rate : 48.0 kHz
Frame rate : 31.250 FPS (1536 SPF)
Bit depth : 16 bits
Compression mode : Lossy
Stream size : 384 MiB (3%)
Title : Авторский | (Ю.Живов)
Language : Russian
Service kind : Complete Main
Default : No
Forced : No

Audio #5
ID : 6
Format : AC-3
Format/Info : Audio Coding 3
Format settings, Endianness : Big
Codec ID : A_AC3
Duration : 1 h 59 min
Bit rate mode : Constant
Bit rate : 448 kb/s
Channel(s) : 6 channels
Channel positions : Front: L C R, Side: L R, LFE
Sampling rate : 48.0 kHz
Frame rate : 31.250 FPS (1536 SPF)
Bit depth : 16 bits
Compression mode : Lossy
Stream size : 384 MiB (3%)
Title : Авторский | (В.Королёв)
Language : Russian
Service kind : Complete Main
Default : No
Forced : No

Audio #6
ID : 7
Format : AC-3
Format/Info : Audio Coding 3
Format settings, Endianness : Big
Codec ID : A_AC3
Duration : 1 h 59 min
Bit rate mode : Constant
Bit rate : 384 kb/s
Channel(s) : 6 channels
Channel positions : Front: L C R, Side: L R, LFE
Sampling rate : 48.0 kHz
Frame rate : 31.250 FPS (1536 SPF)
Bit depth : 16 bits
Compression mode : Lossy
Stream size : 329 MiB (2%)
Title : Дублированный (украинский)
Language : Ukrainian
Service kind : Complete Main
Default : No
Forced : No

Audio #7
ID : 8
Format : DTS
Format/Info : Digital Theater Systems
Mode : 16
Format settings, Endianness : Big
Codec ID : A_DTS
Duration : 1 h 59 min
Bit rate mode : Constant
Bit rate : 1 509 kb/s
Channel(s) : 6 channels
Channel positions : Front: L C R, Side: L R, LFE
Sampling rate : 48.0 kHz
Frame rate : 93.750 FPS (512 SPF)
Bit depth : 24 bits
Compression mode : Lossy
Stream size : 1.26 GiB (9%)
Language : English
Default : No
Forced : No

Text #1
ID : 9
Format : UTF-8
Codec ID : S_TEXT/UTF8
Codec ID/Info : UTF-8 Plain Text
Duration : 1 h 51 min
Bit rate : 75 b/s
Count of elements : 1178
Stream size : 61.6 KiB (0%)
Title : Rus-1
Language : Russian
Default : No
Forced : No

Text #2
ID : 10
Format : UTF-8
Codec ID : S_TEXT/UTF8
Codec ID/Info : UTF-8 Plain Text
Duration : 1 h 51 min
Bit rate : 84 b/s
Count of elements : 1332
Stream size : 69.1 KiB (0%)
Title : Rus-2
Language : Russian
Default : No
Forced : No

Text #3
ID : 11
Format : UTF-8
Codec ID : S_TEXT/UTF8
Codec ID/Info : UTF-8 Plain Text
Duration : 1 h 50 min
Bit rate : 47 b/s
Count of elements : 1372
Stream size : 38.6 KiB (0%)
Language : English
Default : No
Forced : No

Text #4
ID : 12
Format : UTF-8
Codec ID : S_TEXT/UTF8
Codec ID/Info : UTF-8 Plain Text
Duration : 1 h 50 min
Bit rate : 50 b/s
Count of elements : 1500
Stream size : 41.1 KiB (0%)
Title : SDH
Language : English
Default : No
Forced : No

Menu
00:00:00.000 : en:Chapter 01
00:06:57.667 : en:Chapter 02
00:11:47.164 : en:Chapter 03
00:17:44.813 : en:Chapter 04
00:26:34.593 : en:Chapter 05
00:29:55.960 : en:Chapter 06
00:34:44.290 : en:Chapter 07
00:38:32.601 : en:Chapter 08
00:44:26.372 : en:Chapter 09
00:48:20.105 : en:Chapter 10
00:55:05.260 : en:Chapter 11
00:59:13.424 : en:Chapter 12
01:05:36.432 : en:Chapter 13
01:12:55.871 : en:Chapter 14
01:16:08.063 : en:Chapter 15
01:21:57.871 : en:Chapter 16
01:26:17.297 : en:Chapter 17
01:35:32.226 : en:Chapter 18
01:42:06.453 : en:Chapter 19
01:51:51.913 : en:Chapter 20
 
Не забывайте говорить Спасибо. Не уходите с раздачи!   
Торрент: Зарегистрирован [11 май 2019, 14:56] Скачать торрент
Скачать торрент
[ Размер 37.84 КБ / Просмотров 3 ]
Статус:
Проверен
 
.torrent скачан: 0 раз
Хэш: befac3b523d5ccb394de0a8ce89285c0cf99ad3c
Размер: 14.77 ГБ (15 862 487 560 байт)
Стать Автором раздачи
 
 
Раздал: 100 ГБ
Скачал: 0 байт
Ратио: Seed.
Сообщения: 131043
Зарегистрирован: 09 апр 2015, 23:00


  • Похожие торренты
    Ответы
    Просмотры
    Последнее сообщение

Вернуться в Зарубежные фильмы 2006-2010 года

Ресурс не предоставляет электронные версии произведений, а занимается лишь коллекционированием и каталогизацией ссылок, присылаемых и публикуемых на форуме нашими читателями. Если вы являетесь правообладателем какого-либо представленного материала и не желаете чтобы ссылка на него находилась в нашем каталоге, свяжитесь с нами и мы незамедлительно удалим её. Файлы для обмена на трекере предоставлены пользователями сайта, и администрация не несёт ответственности за их содержание. Просьба не заливать файлы, защищенные авторскими правами, а также файлы нелегального содержания!
cron