Зима в раю (1989) SATRip-AVC от KORSAR

 
 Статистика раздачи 
Размер: 3.13 ГБ   |  Зарегистрирован: 10 май 2019, 13:52   |   .torrent скачан: 0 раз
Сидеров: 1  [ 0 байт/сек ]     Личеров: 0  [ 0 байт/сек ]  
  

Зима в раю (1989) SATRip-AVC от KORSAR

Сообщение aLaVodka » 10 май 2019, 15:02

Зима в раю

Жанр: драма
Страна: СССР
Год выпуска: 1989
Продолжительность: 01:24:35 + 01:32:38
Режиссёр: Александр Бланк
В ролях: Юрий Стосков, Оксана Фандера, Лариса Павлова, Татьяна Распутина, Михаил Янушкевич, Елена Фетисенко, Владислав Демченко, Александр Миронов, Алексей Коняшин, Лика Бланк, Ольга Агеева (II), Никита Логинов, Лидия Савченко, Александр Негреба, Ольга Барнет, Владимир Анисько, Павел Белозеров, Геннадий Матвеев, Иван Власов, Л. Алешина

Описание: Восемнадцатилетняя Катя, снимавшаяся в массовке фильма, остаётся на зиму в Kрыму и поселяется у одинокого пожилого плотника...


Релиз от:

Качество: SATRip-AVC
Видео: MPEG-4 AVC, 720x568@785x568, 25 fps, 2347 Кбит/с
Аудио: AC3, 2 ch, 192 Кбит/с
Язык: Русский



x264 [info]: frame I:613 Avg QP:16.87 size: 73811
x264 [info]: frame P:28191 Avg QP:18.65 size: 31956
x264 [info]: frame B:98045 Avg QP:20.47 size: 5854
x264 [info]: consecutive B-frames: 1.1% 2.8% 8.2% 25.4% 25.6% 31.5% 4.0% 0.9% 0.4% 0.1%

Общее
Уникальный идентификатор : 172941188252169482662354867023851823124 (0x821B42E5089E06B6ADEB202A42082014)
Полное имя : D:Зима в раю_1989-SATRip-AVC_KORSARЗима в раю-1.mkv
Формат : Matroska
Версия формата : Version 2
Размер файла : 1,53 Гбайт
Продолжительность : 1 ч. 24 м.
Общий поток : 2590 Кбит/сек
Дата кодирования : UTC 2019-05-02 19:24:59
Программа кодирования : mkvmerge v5.8.0 ('No Sleep / Pillow') built on Sep 2 2012 15:37:04
Библиотека кодирования : libebml v1.2.3 + libmatroska v1.3.0

Видео
Идентификатор : 1
Формат : AVC
Формат/Информация : Advanced Video Codec
Профиль формата : High@L4.1
Параметр CABAC формата : Да
Параметр ReFrames формата : 14 кадров
Идентификатор кодека : V_MPEG4/ISO/AVC
Продолжительность : 1 ч. 24 м.
Битрейт : 2347 Кбит/сек
Ширина : 720 пикселей
Высота : 568 пикселей
Соотношение сторон : 1,382
Соотношение сторон в оригинале : 1,383
Режим частоты кадров : Постоянный
Частота кадров : 25,000 кадров/сек
Цветовое пространство : YUV
Субдискретизация насыщенности : 4:2:0
Битовая глубина : 8 бит
Тип развёртки : Прогрессивная
Бит/(Пиксели*Кадры) : 0.230
Размер потока : 1,39 Гбайт (91%)
Библиотека кодирования : x264 core 152 r2851kMod ba24899
Настройки программы : cabac=1 / ref=14 / deblock=1:-2:-1 / analyse=0x3:0x133 / me=umh / subme=10 / psy=1 / fade_compensate=0.00 / psy_rd=1.05:0.10 / mixed_ref=1 / me_range=40 / chroma_me=1 / trellis=2 / 8x8dct=1 / cqm=0 / deadzone=21,11 / fast_pskip=1 / chroma_qp_offset=-3 / threads=12 / lookahead_threads=2 / sliced_threads=0 / nr=0 / decimate=1 / interlaced=0 / bluray_compat=0 / constrained_intra=0 / bframes=9 / b_pyramid=2 / b_adapt=2 / b_bias=0 / direct=1 / weightb=1 / open_gop=0 / weightp=2 / keyint=250 / keyint_min=25 / scenecut=40 / intra_refresh=0 / rc=crf / mbtree=0 / crf=17.5000 / qcomp=0.63 / qpmin=0 / qpmax=30 / qpstep=4 / ip_ratio=1.40 / pb_ratio=1.30 / aq=1:1.00
Язык : English
Default : Да
Forced : Нет
Основные цвета : BT.601 PAL
Характеристики трансфера : BT.470 System B, BT.470 System G
Коэффициенты матрицы : BT.601

Аудио
Идентификатор : 2
Формат : AC-3
Формат/Информация : Audio Coding 3
Расширение режима : CM (complete main)
Параметр Endianness формата : Big
Идентификатор кодека : A_AC3
Продолжительность : 1 ч. 24 м.
Вид битрейта : Постоянный
Битрейт : 192 Кбит/сек
Каналы : 2 канала
Расположение каналов : Front: L R
Частота : 48,0 КГц
Битовая глубина : 16 бит
Метод сжатия : С потерями
Задержка видео : 12 мс.
Размер потока : 116 Мбайт (7%)
Язык : Russian
Default : Да
Forced : Нет

 
Не забывайте говорить Спасибо. Не уходите с раздачи!   
Торрент: Зарегистрирован [10 май 2019, 13:52] Скачать торрент
Скачать торрент
[ Размер 16.62 КБ / Просмотров 2 ]
Статус:
Проверен
 
.torrent скачан: 0 раз
Хэш: 759770975db90c14e2cffb10ad76fea1c5cd6336
Размер: 3.13 ГБ (3 358 700 202 байт)
Стать Автором раздачи
 
 
Раздал: 100 ГБ
Скачал: 0 байт
Ратио: Seed.
Сообщения: 196180
Зарегистрирован: 09 апр 2015, 20:00


  • Похожие торренты
    Ответы
    Просмотры
    Последнее сообщение

Вернуться в Кино СССР, Советской России, Российской республики (1917-1991)

Ресурс не предоставляет электронные версии произведений, а занимается лишь коллекционированием и каталогизацией ссылок, присылаемых и публикуемых на форуме нашими читателями. Если вы являетесь правообладателем какого-либо представленного материала и не желаете чтобы ссылка на него находилась в нашем каталоге, свяжитесь с нами и мы незамедлительно удалим её. Файлы для обмена на трекере предоставлены пользователями сайта, и администрация не несёт ответственности за их содержание. Просьба не заливать файлы, защищенные авторскими правами, а также файлы нелегального содержания!
cron