Отец солдата (1964) WEBRip 720p от KORSAR

 
 Статистика раздачи 
Размер: 4.67 ГБ   |  Зарегистрирован: 09 май 2019, 13:37   |   .torrent скачан: 0 раз
Сидеров: 1  [ 0 байт/сек ]     Личеров: 0  [ 0 байт/сек ]  
  

Отец солдата (1964) WEBRip 720p от KORSAR

Сообщение aLaVodka » 09 май 2019, 14:15

Отец солдата

Год выпуска: 1964
Страна: СССР
Жанр: драма, военный
Продолжительность: 01:26:45
Режиссер: Резо Чхеидзе
В ролях: Серго Закариадзе, Владимир Привальцев, Александр Назаров, Александр Лебедев, Юрий Дроздов, Владимир Колокольцев, Виктор Уральский, Кетеван Бочоришвили, Владимир Пицек, Петр Любешкин

Описание: Противоестественность войны для человека - труженика, созидателя - показана на примере судьбы старого крестьянина-виноградаря из Грузии. Георгий Махарашвили едет повидаться с сыном, который ранен и находится в госпитале.
Но пока отец добирается до места назначения, сын снова отправляется на фронт. Однако Георгий уже не может вернуться в родную деревню. Он вместе с советской армией проходит весь ее путь - путь до Берлина, до Победы над фашизмом.


Релиз от:

Качество: WEBRip 720p
Видео: MPEG-4 AVC, 900x720, 25 fps, 7297 Кбит/с
Аудио: AC3, 2 ch, 256 Кбит/с
Язык: Русский



    x264 [info]: frame I:660 Avg QP:18.70 size:114022
    x264 [info]: frame P:25352 Avg QP:20.13 size: 68380
    x264 [info]: frame B:104133 Avg QP:22.08 size: 29142
    x264 [info]: consecutive B-frames: 0.8% 1.2% 3.4% 18.3% 18.9% 44.9% 7.0% 2.3% 1.5% 1.5% 0.2% 0.0%
Общее
Уникальный идентификатор : 181217742547404913689541039807522456534 (0x88554486D94F4327A9B740F0697CC3D6)
Полное имя : D:Отец солдата_1964-WEBRip 720p_KORSAR.mkv
Формат : Matroska
Версия формата : Version 2
Размер файла : 4,67 Гбайт
Продолжительность : 1 ч. 26 м.
Общий поток : 7701 Кбит/сек
Название фильма : Отец солдата_1964-WEBRip 720p_KORSAR
Дата кодирования : UTC 2019-05-07 03:51:05
Программа кодирования : mkvmerge v5.8.0 ('No Sleep / Pillow') built on Sep 2 2012 15:37:04
Библиотека кодирования : libebml v1.2.3 + libmatroska v1.3.0

Видео
Идентификатор : 1
Формат : AVC
Формат/Информация : Advanced Video Codec
Профиль формата : High@L4.1
Параметр CABAC формата : Да
Параметр ReFrames формата : 12 кадров
Идентификатор кодека : V_MPEG4/ISO/AVC
Продолжительность : 1 ч. 26 м.
Битрейт : 7292 Кбит/сек
Ширина : 900 пикселей
Высота : 720 пикселей
Соотношение сторон : 5:4
Режим частоты кадров : Постоянный
Частота кадров : 25,000 кадров/сек
Цветовое пространство : YUV
Субдискретизация насыщенности : 4:2:0
Битовая глубина : 8 бит
Тип развёртки : Прогрессивная
Бит/(Пиксели*Кадры) : 0.450
Размер потока : 4,42 Гбайт (95%)
Библиотека кодирования : x264 core 152 r2851kMod ba24899
Настройки программы : cabac=1 / ref=12 / deblock=1:-2:-2 / analyse=0x3:0x113 / me=umh / subme=10 / psy=1 / fade_compensate=0.00 / psy_rd=1.05:0.10 / mixed_ref=1 / me_range=48 / chroma_me=1 / trellis=2 / 8x8dct=1 / cqm=0 / deadzone=21,11 / fast_pskip=1 / chroma_qp_offset=-3 / threads=12 / lookahead_threads=3 / sliced_threads=0 / nr=0 / decimate=1 / interlaced=0 / bluray_compat=0 / constrained_intra=0 / bframes=11 / b_pyramid=2 / b_adapt=2 / b_bias=0 / direct=1 / weightb=1 / open_gop=0 / weightp=2 / keyint=250 / keyint_min=25 / scenecut=40 / intra_refresh=0 / rc=crf / mbtree=0 / crf=17.0000 / qcomp=0.63 / qpmin=0 / qpmax=30 / qpstep=4 / ip_ratio=1.40 / pb_ratio=1.30 / aq=1:0.80
Язык : English
Default : Да
Forced : Нет
Основные цвета : BT.709
Характеристики трансфера : BT.709
Коэффициенты матрицы : BT.709

Аудио
Идентификатор : 2
Формат : AC-3
Формат/Информация : Audio Coding 3
Расширение режима : CM (complete main)
Параметр Endianness формата : Big
Идентификатор кодека : A_AC3
Продолжительность : 1 ч. 26 м.
Вид битрейта : Постоянный
Битрейт : 256 Кбит/сек
Каналы : 2 канала
Расположение каналов : Front: L R
Частота : 48,0 КГц
Битовая глубина : 16 бит
Метод сжатия : С потерями
Размер потока : 159 Мбайт (3%)
Язык : Russian
Default : Да
Forced : Нет
За основу взят исходник с кинопоиска, качество картинки было улучшено с помощью нейронных сетей и фирменной технологии DeepHD, это не реставрация плёнки но улучшения есть, желающие могут посмотреть ролик.

https://www.youtube.com/watch?v=ainlhiNn0Yk
 
Не забывайте говорить Спасибо. Не уходите с раздачи!   
Торрент: Зарегистрирован [09 май 2019, 13:37] Скачать торрент
Скачать торрент
[ Размер 24.22 КБ / Просмотров 2 ]
Статус:
Проверен
 
.torrent скачан: 0 раз
Хэш: 1eed8036dfe3a2c82b056248125b07966efebc88
Размер: 4.67 ГБ (5 011 261 609 байт)
Стать Автором раздачи
 
 
Раздал: 100 ГБ
Скачал: 0 байт
Ратио: Seed.
Сообщения: 197715
Зарегистрирован: 09 апр 2015, 20:00


  • Похожие торренты
    Ответы
    Просмотры
    Последнее сообщение

Вернуться в Кино СССР, Советской России, Российской республики (1917-1991)

Ресурс не предоставляет электронные версии произведений, а занимается лишь коллекционированием и каталогизацией ссылок, присылаемых и публикуемых на форуме нашими читателями. Если вы являетесь правообладателем какого-либо представленного материала и не желаете чтобы ссылка на него находилась в нашем каталоге, свяжитесь с нами и мы незамедлительно удалим её. Файлы для обмена на трекере предоставлены пользователями сайта, и администрация не несёт ответственности за их содержание. Просьба не заливать файлы, защищенные авторскими правами, а также файлы нелегального содержания!
cron