Освобождение [01-05 из 05] (1968-1971) BDRip 720p от KORSAR

 
 Статистика раздачи 
Размер: 19.62 ГБ   |  Зарегистрирован: 09 май 2019, 11:42   |   .torrent скачан: 0 раз
Сидеров: 1  [ 0 байт/сек ]     Личеров: 0  [ 0 байт/сек ]  
  

Освобождение [01-05 из 05] (1968-1971) BDRip 720p от KORSAR

Сообщение aLaVodka » 09 май 2019, 12:53

Освобождение

Год выхода: 1968-1971
Жанр: драма, военный
Режиссер: Юрий Озеров
В ролях: Николай Олялин, Лариса Голубкина, Борис Зайденберг, Сергей Никоненко, Михаил Ульянов, Владлен Давыдов, Василий Шукшин, Евгений Буренков, Дмитрий Франько, Юрий Каморный, Михаил Ножкин, Иван Переверзев, Владислав Стржельчик, Анатолий Ромашин, Николай Рыбников, Валерий Носик, Владимир Коренев, Эдуард Изотов, Всеволод Санаев, Владимир Самойлов, Игорь Озеров, Сергей Харченко, Николай Рушковский, Константин Забелин, Виктор Авдюшко, Владимир Заманский, Клён Протасов, Александр Афанасьев, Алексей Глазырин, Пётр Глебов, Григорий Михайлов, Пётр Щербаков, Роман Ткачук, Сергей Ляхницкий, Валерий Карен, Виктор Байков, Николай Боголюбов, Владимир Герасимов, Михаил Глузский

О фильме: Историческая киноэпопея в пяти фильмах о событиях Великой Отечественной войны, где наряду с подлинными историческими лицами действуют вымышленные герои... Всего в картине действует 51 реальный исторический персонаж. Подбор актёров на роли этих персонажей оказался непростым делом. Главная проблема заключалась в том, что практически все прототипы героев фильма были ещё живы. Большинство из них занимали высокие посты и весьма интересовались тем, как будут выглядеть на экране. Нужно было не просто добиться портретного сходства, но и получить согласие самого прототипа (или кураторов съёмочного процесса) на изображение на экране этого прототипа тем или иным актёром. Создание фильма консультировали сотни специалистов и участников тех событий.


Релиз от:

Выпущено: СССР
Продолжительность: 5 x ~ 01:25:00
Перевод: не требуется

Кодек: х264
Качество: BDRip-720p
Видео: MPEG-4 AVC, 1280x546, 24 fps, 5750 Кбит/с
Звук: AC3, 2 ch, 224 Кбит/с



x264 [info]: frame I:623 Avg QP:18.17 size:131628
x264 [info]: frame P:31081 Avg QP:20.13 size: 63261
x264 [info]: frame B:100160 Avg QP:21.79 size: 18972
==========================================================================
Общее
Уникальный идентификатор : 222747134366812855687905047106208149773 (0xA79389A0D4F3D1FC983382FEE044310D)
Полное имя : R:МОИ РИПЫОсвобождение_1968-1971-BDRip-720pОсвобождение-1.mkv
Формат : Matroska
Версия формата : Version 2
Размер файла : 3,82 Гбайт
Продолжительность : 1 ч. 31 м.
Общий поток : 5974 Кбит/сек
Дата кодирования : UTC 2016-12-01 20:59:08
Программа кодирования : mkvmerge v5.8.0 ('No Sleep / Pillow') built on Sep 2 2012 15:37:04
Библиотека кодирования : libebml v1.2.3 + libmatroska v1.3.0

Видео
Идентификатор : 1
Формат : AVC
Формат/Информация : Advanced Video Codec
Профиль формата : High@L4.1
Параметр CABAC формата : Да
Параметр ReFrames формата : 11 кадров
Идентификатор кодека : V_MPEG4/ISO/AVC
Продолжительность : 1 ч. 31 м.
Битрейт : 5750 Кбит/сек
Ширина : 1280 пикселей
Высота : 546 пикселей
Соотношение сторон : 2,35:1
Режим частоты кадров : Постоянный
Частота кадров : 24,000 кадра/сек
Цветовое пространство : YUV
Субдискретизация насыщенности : 4:2:0
Битовая глубина : 8 бит
Тип развёртки : Прогрессивная
Бит/(Пиксели*Кадры) : 0.343
Размер потока : 3,60 Гбайт (94%)
Заголовок : korsar.tv
Библиотека кодирования : x264 core 148 r2721kMod 72d53ab
Настройки программы : cabac=1 / ref=11 / deblock=1:-2:-2 / analyse=0x3:0x113 / me=umh / subme=10 / psy=1 / fade_compensate=0.00 / psy_rd=0.95:0.10 / mixed_ref=1 / me_range=32 / chroma_me=1 / trellis=2 / 8x8dct=1 / cqm=0 / deadzone=21,11 / fast_pskip=0 / chroma_qp_offset=-3 / threads=12 / lookahead_threads=3 / sliced_threads=0 / nr=0 / decimate=0 / interlaced=0 / bluray_compat=0 / constrained_intra=0 / fgo=0 / bframes=11 / b_pyramid=2 / b_adapt=2 / b_bias=0 / direct=3 / weightb=1 / open_gop=0 / weightp=2 / keyint=250 / keyint_min=24 / scenecut=40 / intra_refresh=0 / rc=2pass / mbtree=0 / bitrate=5750 / ratetol=1.0 / qcomp=0.63 / qpmin=0 / qpmax=39 / qpstep=4 / cplxblur=20.0 / qblur=0.5 / ip_ratio=1.20 / pb_ratio=1.30 / aq=2:0.70
Язык : English
Default : Да
Forced : Нет
Цветовой диапазон : Limited
Основные цвета : BT.709
Характеристики трансфера : BT.709
Коэффициенты матрицы : BT.709

Аудио
Идентификатор : 2
Формат : AC-3
Формат/Информация : Audio Coding 3
Расширение режима : CM (complete main)
Параметр Endianness формата : Big
Идентификатор кодека : A_AC3
Продолжительность : 1 ч. 31 м.
Вид битрейта : Постоянный
Битрейт : 224 Кбит/сек
Каналы : 2 канала
Расположение каналов : Front: L R
Частота : 48,0 КГц
Частота кадров : 31,250 кадров/сек (1536 spf)
Битовая глубина : 16 бит
Метод сжатия : С потерями
Размер потока : 147 Мбайт (4%)
Язык : Russian
Default : Да
Forced : Нет

Меню
00:00:00.000 : en:
00:00:15.833 : en:
00:05:35.750 : en:
00:10:00.833 : en:
00:12:48.333 : en:
00:18:26.708 : en:
00:28:12.541 : en:
00:30:48.791 : en:
00:34:34.666 : en:
00:39:34.666 : en:
00:51:48.000 : en:
00:56:36.083 : en:
00:59:23.000 : en:
01:02:22.416 : en:
01:05:10.958 : en:
01:07:23.000 : en:
01:23:41.750 : en:
01:28:31.333 : en:
01:31:25.291 : en:

 
Не забывайте говорить Спасибо. Не уходите с раздачи!   
Торрент: Зарегистрирован [09 май 2019, 11:42] Скачать торрент
Скачать торрент
[ Размер 99.33 КБ / Просмотров 5 ]
Статус:
Проверен
 
.torrent скачан: 0 раз
Хэш: b28f046fc637a81f21d12d2dc1909c76aaaf38f8
Размер: 19.62 ГБ (21 065 052 818 байт)
Стать Автором раздачи
 
 
Раздал: 100 ГБ
Скачал: 0 байт
Ратио: Seed.
Сообщения: 197715
Зарегистрирован: 09 апр 2015, 20:00


  • Похожие торренты
    Ответы
    Просмотры
    Последнее сообщение

Вернуться в Кино СССР, Советской России, Российской республики (1917-1991)

Ресурс не предоставляет электронные версии произведений, а занимается лишь коллекционированием и каталогизацией ссылок, присылаемых и публикуемых на форуме нашими читателями. Если вы являетесь правообладателем какого-либо представленного материала и не желаете чтобы ссылка на него находилась в нашем каталоге, свяжитесь с нами и мы незамедлительно удалим её. Файлы для обмена на трекере предоставлены пользователями сайта, и администрация не несёт ответственности за их содержание. Просьба не заливать файлы, защищенные авторскими правами, а также файлы нелегального содержания!
cron