Первая встреча, последняя встреча (1987) DVDRip-AVC от KORSAR

 
 Статистика раздачи 
Размер: 1.7 ГБ   |  Зарегистрирован: 02 май 2019, 02:14   |   .torrent скачан: 0 раз
Сидеров: 1  [ 0 байт/сек ]     Личеров: 0  [ 0 байт/сек ]  
  

Первая встреча, последняя встреча (1987) DVDRip-AVC от KORSAR

Сообщение aLaVodka » 02 май 2019, 03:12

Первая встреча, последняя встреча

Год выпуска: 1987
Страна: СССР
Жанр: Детектив
Продолжительность: 01:27:00
Режиссер: Виталий Мельников
В ролях: Михаил Морозов (Петр Чухонцев), Гражина Шаполовска (Ванда), Борис Плотников (изобретатель Куклин), Олег Ефремов (изобретатель Занзевеев), Юрий Богатырев (майор Зигфрид Гей), Александр Шакуров (некто Шольц), Михаил Кононов (бывший сыщик Погилевич), Николай Крючков (пристав), Иннокентий Смоктуновский (чин из контрразведки), Леонид Куравлев (граф), Сергей Мигицко (поручик Бобрин), Ольга Машная (горничная Ванды), Гали Абайдулов (конферансье), Юрий Катин-Ярцев (сосед Занзевеева), Станислав Соколов (шпик) и другие

Описание: Странные, драматические события разворачиваются в Петербурге в течение одной рождественской недели перед новым, 1914-м годом. Студент-юрист Петя Чухонцев расследует убийство изобретателя Куклина. Петя быстро соображает, что в этом деле центральной фигурой является немец Шольц, по дешевке скупающий изобретения русских умельцев и передающий их германскому шпиону. Однако так же скоро Петя поймет и то, что влез явно не в свое дело.


Релиз от:

Качество: DVDRip-AVC
Видео: MPEG-4 AVC, 706x558@754x558, 25 fps, 2546 Кбит/с
Аудио: AC3, 2 ch, 192 Кбит/с
Язык: Русский



x264 [info]: frame I:652 Avg QP:16.95 size: 72906
x264 [info]: frame P:24630 Avg QP:18.59 size: 32971
x264 [info]: frame B:105261 Avg QP:20.34 size: 7956
x264 [info]: consecutive B-frames: 0.7% 0.8% 4.2% 9.9% 18.9% 55.7% 6.6% 1.4% 1.0% 0.6% 0.1%
Общее
Уникальный идентификатор : 191560728680524946464102937901840641117 (0x901D411D4EB4F64AA2047D6DCDA2AC5D)
Полное имя : D:Первая встреча, последняя встреча_1987-DVDRip-AVC_KORSAR.mkv
Формат : Matroska
Версия формата : Version 2
Размер файла : 1,70 Гбайт
Продолжительность : 1 ч. 27 м.
Общий поток : 2794 Кбит/сек
Название фильма : Первая встреча, последняя встреча_1987-DVDRip-AVC_KORSAR
Дата кодирования : UTC 2019-04-30 13:46:06
Программа кодирования : mkvmerge v5.8.0 ('No Sleep / Pillow') built on Sep 2 2012 15:37:04
Библиотека кодирования : libebml v1.2.3 + libmatroska v1.3.0

Видео
Идентификатор : 1
Формат : AVC
Формат/Информация : Advanced Video Codec
Профиль формата : High@L4.1
Параметр CABAC формата : Да
Параметр ReFrames формата : 16 кадров
Идентификатор кодека : V_MPEG4/ISO/AVC
Продолжительность : 1 ч. 27 м.
Битрейт : 2546 Кбит/сек
Ширина : 706 пикселей
Высота : 558 пикселей
Соотношение сторон : 4:3
Соотношение сторон в оригинале : 4:3
Режим частоты кадров : Постоянный
Частота кадров : 25,000 кадров/сек
Цветовое пространство : YUV
Субдискретизация насыщенности : 4:2:0
Битовая глубина : 8 бит
Тип развёртки : Прогрессивная
Бит/(Пиксели*Кадры) : 0.259
Размер потока : 1,55 Гбайт (91%)
Библиотека кодирования : x264 core 152 r2851kMod ba24899
Настройки программы : cabac=1 / ref=16 / deblock=1:-2:-1 / analyse=0x3:0x133 / me=umh / subme=10 / psy=1 / fade_compensate=0.00 / psy_rd=1.05:0.10 / mixed_ref=1 / me_range=40 / chroma_me=1 / trellis=2 / 8x8dct=1 / cqm=0 / deadzone=21,11 / fast_pskip=1 / chroma_qp_offset=-3 / threads=12 / lookahead_threads=3 / sliced_threads=0 / nr=0 / decimate=1 / interlaced=0 / bluray_compat=0 / constrained_intra=0 / bframes=10 / b_pyramid=2 / b_adapt=2 / b_bias=0 / direct=1 / weightb=1 / open_gop=0 / weightp=2 / keyint=250 / keyint_min=25 / scenecut=40 / intra_refresh=0 / rc=crf / mbtree=0 / crf=18.3000 / qcomp=0.63 / qpmin=0 / qpmax=30 / qpstep=4 / ip_ratio=1.40 / pb_ratio=1.30 / aq=1:1.00
Язык : English
Default : Да
Forced : Нет
Основные цвета : BT.601 PAL
Характеристики трансфера : BT.470 System B, BT.470 System G
Коэффициенты матрицы : BT.601

Аудио
Идентификатор : 2
Формат : AC-3
Формат/Информация : Audio Coding 3
Расширение режима : CM (complete main)
Параметр Endianness формата : Big
Идентификатор кодека : A_AC3
Продолжительность : 1 ч. 27 м.
Вид битрейта : Постоянный
Битрейт : 192 Кбит/сек
Каналы : 2 канала
Расположение каналов : Front: L R
Частота : 48,0 КГц
Битовая глубина : 16 бит
Метод сжатия : С потерями
Размер потока : 120 Мбайт (7%)
Язык : Russian
Default : Да
Forced : Нет

Меню
00:00:00.000 : en:Chapter 1
00:06:43.680 : en:Chapter 2
00:13:30.240 : en:Chapter 3
00:21:44.160 : en:Chapter 4
00:28:49.440 : en:Chapter 5
00:35:35.520 : en:Chapter 6
00:42:37.440 : en:Chapter 7
00:50:17.760 : en:Chapter 8
00:57:25.920 : en:Chapter 9
01:04:03.840 : en:Chapter 10
01:09:16.800 : en:Chapter 11
01:17:17.280 : en:Chapter 12
 
Не забывайте говорить Спасибо. Не уходите с раздачи!   
Торрент: Зарегистрирован [02 май 2019, 02:14] Скачать торрент
Скачать торрент
[ Размер 17.95 КБ / Просмотров 1 ]
Статус:
Проверен
 
.torrent скачан: 0 раз
Хэш: 551c1b05ec12d6554667faf590377aa43aeac172
Размер: 1.7 ГБ (1 823 579 372 байт)
Стать Автором раздачи
 
 
Раздал: 100 ГБ
Скачал: 0 байт
Ратио: Seed.
Сообщения: 196180
Зарегистрирован: 09 апр 2015, 20:00


  • Похожие торренты
    Ответы
    Просмотры
    Последнее сообщение

Вернуться в Кино СССР, Советской России, Российской республики (1917-1991)

Ресурс не предоставляет электронные версии произведений, а занимается лишь коллекционированием и каталогизацией ссылок, присылаемых и публикуемых на форуме нашими читателями. Если вы являетесь правообладателем какого-либо представленного материала и не желаете чтобы ссылка на него находилась в нашем каталоге, свяжитесь с нами и мы незамедлительно удалим её. Файлы для обмена на трекере предоставлены пользователями сайта, и администрация не несёт ответственности за их содержание. Просьба не заливать файлы, защищенные авторскими правами, а также файлы нелегального содержания!
cron