Весенние перевертыши (1974) SATRip-AVC от KORSAR

 
 Статистика раздачи 
Размер: 1.49 ГБ   |  Зарегистрирован: 02 май 2019, 02:08   |   .torrent скачан: 0 раз
Сидеров: 1  [ 0 байт/сек ]     Личеров: 0  [ 0 байт/сек ]  
  

Весенние перевертыши (1974) SATRip-AVC от KORSAR

Сообщение aLaVodka » 02 май 2019, 03:12

Весенние перевертыши

Год выпуска: 1974
Страна: СССР
Жанр: Драма
Продолжительность: 01:28:01
Режиссер: Григорий Аронов
В ролях: Роман Мадянов, Лариса Малеванная, Николай Пеньков (II), Лев Дуров, Николай Гринько, Дима Зарубин, Виктор Краславский, Владимир Юрьев, Ольга Тюркина, Павел Батов

Описание: Дюшка Тягунов живет в небольшом поселке Куделино на северной реке. Прожил он на свете уже 13 лет и образцово-показательным мальчиком не был, учился кое-как, но этой весной мир стал играть с ним в перевертыши.


Релиз от:

Качество: SATRip-AVC
Видео: MPEG-4 AVC, 700x372@764x372, 25 fps, 2176 Кбит/с
Аудио: AC3, 2 ch, 192 Кбит/с
Язык: Русский


x264 [info]: frame I:677 Avg QP:17.83 size: 50626
x264 [info]: frame P:29296 Avg QP:19.45 size: 26555
x264 [info]: frame B:102054 Avg QP:21.18 size: 6416
x264 [info]: consecutive B-frames: 2.0% 2.9% 10.1% 13.6% 21.2% 45.4% 3.9% 0.7% 0.2% 0.1% 0.0%
Общее
Уникальный идентификатор : 222837159501273639683699704983121531175 (0xA7A4E035C6E0429F8B9BE8DA58B39127)
Полное имя : D:Весенние перевертыши_1974-SATRip-AVC_KORSAR.mkv
Формат : Matroska
Версия формата : Version 2
Размер файла : 1,49 Гбайт
Продолжительность : 1 ч. 28 м.
Общий поток : 2416 Кбит/сек
Дата кодирования : UTC 2019-04-29 21:14:32
Программа кодирования : mkvmerge v5.8.0 ('No Sleep / Pillow') built on Sep 2 2012 15:37:04
Библиотека кодирования : libebml v1.2.3 + libmatroska v1.3.0

Видео
Идентификатор : 1
Формат : AVC
Формат/Информация : Advanced Video Codec
Профиль формата : High@L4.1
Параметр CABAC формата : Да
Параметр ReFrames формата : 16 кадров
Идентификатор кодека : V_MPEG4/ISO/AVC
Продолжительность : 1 ч. 28 м.
Битрейт : 2176 Кбит/сек
Ширина : 700 пикселей
Высота : 372 пикселя
Соотношение сторон : 2,054
Соотношение сторон в оригинале : 2,053
Режим частоты кадров : Постоянный
Частота кадров : 25,000 кадров/сек
Цветовое пространство : YUV
Субдискретизация насыщенности : 4:2:0
Битовая глубина : 8 бит
Тип развёртки : Прогрессивная
Бит/(Пиксели*Кадры) : 0.334
Размер потока : 1,34 Гбайт (90%)
Библиотека кодирования : x264 core 152 r2851kMod ba24899
Настройки программы : cabac=1 / ref=16 / deblock=1:-2:-1 / analyse=0x3:0x133 / me=umh / subme=10 / psy=1 / fade_compensate=0.00 / psy_rd=1.05:0.10 / mixed_ref=1 / me_range=40 / chroma_me=1 / trellis=2 / 8x8dct=1 / cqm=0 / deadzone=21,11 / fast_pskip=1 / chroma_qp_offset=-3 / threads=12 / lookahead_threads=2 / sliced_threads=0 / nr=0 / decimate=1 / interlaced=0 / bluray_compat=0 / constrained_intra=0 / bframes=10 / b_pyramid=2 / b_adapt=2 / b_bias=0 / direct=1 / weightb=1 / open_gop=0 / weightp=2 / keyint=250 / keyint_min=25 / scenecut=40 / intra_refresh=0 / rc=crf / mbtree=0 / crf=17.7000 / qcomp=0.63 / qpmin=0 / qpmax=30 / qpstep=4 / ip_ratio=1.40 / pb_ratio=1.30 / aq=1:1.00
Язык : English
Default : Да
Forced : Нет
Основные цвета : BT.601 PAL
Характеристики трансфера : BT.470 System B, BT.470 System G
Коэффициенты матрицы : BT.601

Аудио
Идентификатор : 2
Формат : AC-3
Формат/Информация : Audio Coding 3
Расширение режима : CM (complete main)
Параметр Endianness формата : Big
Идентификатор кодека : A_AC3
Продолжительность : 1 ч. 28 м.
Вид битрейта : Постоянный
Битрейт : 192 Кбит/сек
Каналы : 2 канала
Расположение каналов : Front: L R
Частота : 48,0 КГц
Битовая глубина : 16 бит
Метод сжатия : С потерями
Задержка видео : 13 мс.
Размер потока : 121 Мбайт (8%)
Язык : Russian
Default : Да
Forced : Нет

 
Не забывайте говорить Спасибо. Не уходите с раздачи!   
Торрент: Зарегистрирован [02 май 2019, 02:08] Скачать торрент
Скачать торрент
[ Размер 15.8 КБ / Просмотров 1 ]
Статус:
Проверен
 
.torrent скачан: 0 раз
Хэш: 4af0ead964d1a067e34ea6eea4643f42f660a760
Размер: 1.49 ГБ (1 594 879 962 байт)
Стать Автором раздачи
 
 
Раздал: 100 ГБ
Скачал: 0 байт
Ратио: Seed.
Сообщения: 196180
Зарегистрирован: 09 апр 2015, 20:00


  • Похожие торренты
    Ответы
    Просмотры
    Последнее сообщение

Вернуться в Кино СССР, Советской России, Российской республики (1917-1991)

Ресурс не предоставляет электронные версии произведений, а занимается лишь коллекционированием и каталогизацией ссылок, присылаемых и публикуемых на форуме нашими читателями. Если вы являетесь правообладателем какого-либо представленного материала и не желаете чтобы ссылка на него находилась в нашем каталоге, свяжитесь с нами и мы незамедлительно удалим её. Файлы для обмена на трекере предоставлены пользователями сайта, и администрация не несёт ответственности за их содержание. Просьба не заливать файлы, защищенные авторскими правами, а также файлы нелегального содержания!
cron