Тихое следствие (1986) SATRip-AVC от KORSAR

 
 Статистика раздачи 
Размер: 1.21 ГБ   |  Зарегистрирован: 02 май 2019, 02:03   |   .torrent скачан: 0 раз
Сидеров: 1  [ 0 байт/сек ]     Личеров: 0  [ 0 байт/сек ]  
  

Тихое следствие (1986) SATRip-AVC от KORSAR

Сообщение aLaVodka » 02 май 2019, 03:12

Тихое следствие

Жанр: детектив
Год выпуска: 1986
Страна: СССР
Продолжительность: 01:03:49
Режиссёр: Александр Пашовкин
В ролях: Алексей Булдаков , Владимир Кузнецов , Николай Лавров , Михаил Данилов, Валерий Приемыхов , Александр Суснин

Описание: Следователю Рябинину поручают вести дело о хищениях бензина. Его предшественник, задержавший оператора бензоколонки Топтунова, не смог собрать достаточного количества улик и поэтому был отстранен от расследования. Рябинин стремится исправить ошибки коллеги и выпускает задержанного на свободу. Вскоре милиция находит труп Топтунова...

Релиз от:
Качество: SATRip-AVC
Видео: MPEG-4 AVC, 696x412@760x412, 25 fps, 2471 Кбит/с
Аудио: AC3, 2 ch, 192 Кбит/с
Язык: Русский



x264 [info]: frame I:484 Avg QP:17.33 size: 63235
x264 [info]: frame P:21122 Avg QP:19.29 size: 30291
x264 [info]: frame B:74121 Avg QP:21.67 size: 7249
x264 [info]: consecutive B-frames: 1.9% 3.3% 7.1% 18.5% 22.3% 38.9% 6.3% 1.3% 0.3% 0.1%
Общее
Уникальный идентификатор : 246109379075977415900456881704632129684 (0xB926F138FAE84A82B8B6AE03E6E91894)
Полное имя : D:Тихое следствие_1986-SATRip-AVC_KORSAR.mkv
Формат : Matroska
Версия формата : Version 2
Размер файла : 1,21 Гбайт
Продолжительность : 1 ч. 3 м.
Общий поток : 2717 Кбит/сек
Название фильма : Тихое следствие_1986-SATRip-AVC_KORSAR
Дата кодирования : UTC 2019-04-29 15:48:52
Программа кодирования : mkvmerge v5.8.0 ('No Sleep / Pillow') built on Sep 2 2012 15:37:04
Библиотека кодирования : libebml v1.2.3 + libmatroska v1.3.0

Видео
Идентификатор : 1
Формат : AVC
Формат/Информация : Advanced Video Codec
Профиль формата : High@L4.1
Параметр CABAC формата : Да
Параметр ReFrames формата : 14 кадров
Идентификатор кодека : V_MPEG4/ISO/AVC
Продолжительность : 1 ч. 3 м.
Битрейт : 2471 Кбит/сек
Ширина : 696 пикселей
Высота : 412 пикселей
Соотношение сторон : 1,85:1
Соотношение сторон в оригинале : 1,85:1
Режим частоты кадров : Постоянный
Частота кадров : 25,000 кадров/сек
Цветовое пространство : YUV
Субдискретизация насыщенности : 4:2:0
Битовая глубина : 8 бит
Тип развёртки : Прогрессивная
Бит/(Пиксели*Кадры) : 0.345
Размер потока : 1,10 Гбайт (91%)
Библиотека кодирования : x264 core 152 r2851kMod ba24899
Настройки программы : cabac=1 / ref=14 / deblock=1:-2:-1 / analyse=0x3:0x133 / me=umh / subme=10 / psy=1 / fade_compensate=0.00 / psy_rd=1.05:0.10 / mixed_ref=1 / me_range=40 / chroma_me=1 / trellis=2 / 8x8dct=1 / cqm=0 / deadzone=21,11 / fast_pskip=1 / chroma_qp_offset=-3 / threads=12 / lookahead_threads=2 / sliced_threads=0 / nr=0 / decimate=1 / interlaced=0 / bluray_compat=0 / constrained_intra=0 / bframes=9 / b_pyramid=2 / b_adapt=2 / b_bias=0 / direct=1 / weightb=1 / open_gop=0 / weightp=2 / keyint=250 / keyint_min=25 / scenecut=40 / intra_refresh=0 / rc=crf / mbtree=0 / crf=17.0000 / qcomp=0.63 / qpmin=0 / qpmax=30 / qpstep=4 / ip_ratio=1.40 / pb_ratio=1.30 / aq=1:0.90
Язык : English
Default : Да
Forced : Нет
Основные цвета : BT.601 PAL
Характеристики трансфера : BT.470 System B, BT.470 System G
Коэффициенты матрицы : BT.601

Аудио
Идентификатор : 2
Формат : AC-3
Формат/Информация : Audio Coding 3
Расширение режима : CM (complete main)
Параметр Endianness формата : Big
Идентификатор кодека : A_AC3
Продолжительность : 1 ч. 3 м.
Вид битрейта : Постоянный
Битрейт : 192 Кбит/сек
Каналы : 2 канала
Расположение каналов : Front: L R
Частота : 48,0 КГц
Битовая глубина : 16 бит
Метод сжатия : С потерями
Размер потока : 87,6 Мбайт (7%)
Язык : Russian
Default : Да
Forced : Нет

 
Не забывайте говорить Спасибо. Не уходите с раздачи!   
Торрент: Зарегистрирован [02 май 2019, 02:03] Скачать торрент
Скачать торрент
[ Размер 13.05 КБ / Просмотров 2 ]
Статус:
Проверен
 
.torrent скачан: 0 раз
Хэш: a3f5369fae4691c25c870c569a539f8d447621a9
Размер: 1.21 ГБ (1 300 456 660 байт)
Стать Автором раздачи
 
 
Раздал: 100 ГБ
Скачал: 0 байт
Ратио: Seed.
Сообщения: 196180
Зарегистрирован: 09 апр 2015, 20:00


  • Похожие торренты
    Ответы
    Просмотры
    Последнее сообщение

Вернуться в Кино СССР, Советской России, Российской республики (1917-1991)

Ресурс не предоставляет электронные версии произведений, а занимается лишь коллекционированием и каталогизацией ссылок, присылаемых и публикуемых на форуме нашими читателями. Если вы являетесь правообладателем какого-либо представленного материала и не желаете чтобы ссылка на него находилась в нашем каталоге, свяжитесь с нами и мы незамедлительно удалим её. Файлы для обмена на трекере предоставлены пользователями сайта, и администрация не несёт ответственности за их содержание. Просьба не заливать файлы, защищенные авторскими правами, а также файлы нелегального содержания!
cron