Француз (1988) DVDRip-AVC от KORSAR

 
 Статистика раздачи 
Размер: 1.56 ГБ   |  Зарегистрирован: 02 май 2019, 01:58   |   .torrent скачан: 0 раз
Сидеров: 1  [ 0 байт/сек ]     Личеров: 0  [ 0 байт/сек ]  
  

Француз (1988) DVDRip-AVC от KORSAR

Сообщение aLaVodka » 02 май 2019, 03:12

Француз

Год выпуска: 1988
Жанр: Трагикомедия
Продолжительность: 01:13:54
Режиссер: Галина Юркова
В ролях: Сергей Шакуров, Евгения Симонова, Леонид Ярмольник, Семен Фарада, Александр Бирюков, Юрий Звягинцев, Игорь Скляр, Борис Гитин, Александр Комлев

Описание: Сценарий Сергей Бодров, Георгий Данелия.
После длительной и вынужденной отлучки бывший участник французского Сопротивления возвращается домой, где без него выросли два его сына, а их мать, смирившаяся с отсутствием мужа, наконец, решилась выйти замуж...


Релиз от:
Качество: DVDRip-AVC
Видео: MPEG-4 AVC, 706x414@706x466, 25 fps, 2293 Кбит/с
Аудио: AC3, 6 ch, 448 Кбит/с, AC3, 2 ch, 224 Кбит/с
Язык: Русский



    x264 [info]: frame I:652 Avg QP:18.04 size: 60347
    x264 [info]: frame P:25172 Avg QP:19.70 size: 28424
    x264 [info]: frame B:85037 Avg QP:22.02 size: 6450
    x264 [info]: consecutive B-frames: 1.9% 1.7% 9.2% 24.8% 30.5% 27.2% 3.6% 0.7% 0.3% 0.2%
Общее
Уникальный идентификатор : 208419854617324235243159872159299010634 (0x9CCC3432DF0B3BFB89E345676D4A004A)
Полное имя : D:Француз_1988-DVDRip-AVC_KORSAR.mkv
Формат : Matroska
Версия формата : Version 2
Размер файла : 1,56 Гбайт
Продолжительность : 1 ч. 13 м.
Общий поток : 3025 Кбит/сек
Название фильма : Француз_1988-DVDRip-AVC_KORSAR
Дата кодирования : UTC 2019-04-29 11:13:57
Программа кодирования : mkvmerge v5.8.0 ('No Sleep / Pillow') built on Sep 2 2012 15:37:04
Библиотека кодирования : libebml v1.2.3 + libmatroska v1.3.0

Видео
Идентификатор : 1
Формат : AVC
Формат/Информация : Advanced Video Codec
Профиль формата : High@L4.1
Параметр CABAC формата : Да
Параметр ReFrames формата : 15 кадров
Идентификатор кодека : V_MPEG4/ISO/AVC
Битрейт : 2293 Кбит/сек
Ширина : 706 пикселей
Высота : 414 пикселей
Соотношение сторон : 3:2
Соотношение сторон в оригинале : 3:2
Режим частоты кадров : Переменный
Частота кадров в оригинале : 25,000 кадров/сек
Цветовое пространство : YUV
Субдискретизация насыщенности : 4:2:0
Битовая глубина : 8 бит
Тип развёртки : Прогрессивная
Библиотека кодирования : x264 core 152 r2851kMod ba24899
Настройки программы : cabac=1 / ref=15 / deblock=1:-2:-1 / analyse=0x3:0x133 / me=umh / subme=10 / psy=1 / fade_compensate=0.00 / psy_rd=1.05:0.10 / mixed_ref=1 / me_range=40 / chroma_me=1 / trellis=2 / 8x8dct=1 / cqm=0 / deadzone=21,11 / fast_pskip=1 / chroma_qp_offset=-3 / threads=12 / lookahead_threads=2 / sliced_threads=0 / nr=0 / decimate=1 / interlaced=0 / bluray_compat=0 / constrained_intra=0 / bframes=9 / b_pyramid=2 / b_adapt=2 / b_bias=0 / direct=1 / weightb=1 / open_gop=0 / weightp=2 / keyint=250 / keyint_min=25 / scenecut=40 / intra_refresh=0 / rc=crf / mbtree=0 / crf=17.3000 / qcomp=0.63 / qpmin=0 / qpmax=30 / qpstep=4 / ip_ratio=1.40 / pb_ratio=1.30 / aq=1:1.00
Язык : English
Default : Да
Forced : Нет
Основные цвета : BT.601 NTSC
Характеристики трансфера : BT.601
Коэффициенты матрицы : BT.601

Аудио #1
Идентификатор : 2
Формат : AC-3
Формат/Информация : Audio Coding 3
Расширение режима : CM (complete main)
Параметр Endianness формата : Big
Идентификатор кодека : A_AC3
Продолжительность : 1 ч. 13 м.
Вид битрейта : Постоянный
Битрейт : 448 Кбит/сек
Каналы : 6 каналов
Расположение каналов : Front: L C R, Side: L R, LFE
Частота : 48,0 КГц
Битовая глубина : 16 бит
Метод сжатия : С потерями
Размер потока : 237 Мбайт (15%)
Язык : Russian
Default : Да
Forced : Нет

Аудио #2
Идентификатор : 3
Формат : AC-3
Формат/Информация : Audio Coding 3
Расширение режима : CM (complete main)
Параметр Endianness формата : Big
Идентификатор кодека : A_AC3
Продолжительность : 1 ч. 13 м.
Вид битрейта : Постоянный
Битрейт : 224 Кбит/сек
Каналы : 2 канала
Расположение каналов : Front: L R
Частота : 48,0 КГц
Битовая глубина : 16 бит
Метод сжатия : С потерями
Размер потока : 118 Мбайт (7%)
Язык : Russian
Default : Нет
Forced : Нет

Меню
00:00:00.000 : en:Chapter 1
00:03:37.000 : en:Chapter 2
00:13:26.500 : en:Chapter 3
00:19:41.301 : en:Chapter 4
00:29:18.601 : en:Chapter 5
00:37:40.202 : en:Chapter 6
00:40:46.103 : en:Chapter 7
00:42:30.804 : en:Chapter 8
00:57:20.904 : en:Chapter 9
01:01:35.104 : en:Chapter 10
01:06:39.705 : en:Chapter 11
01:12:23.105 : en:Chapter 12

Трансфер PAL>NTSC
 
Не забывайте говорить Спасибо. Не уходите с раздачи!   
Торрент: Зарегистрирован [02 май 2019, 01:58] Скачать торрент
Скачать торрент
[ Размер 16.54 КБ / Просмотров 1 ]
Статус:
Проверен
 
.torrent скачан: 0 раз
Хэш: b70d78e47962056b32571d9e7ba8cf2370d61709
Размер: 1.56 ГБ (1 676 944 997 байт)
Стать Автором раздачи
 
 
Раздал: 100 ГБ
Скачал: 0 байт
Ратио: Seed.
Сообщения: 196180
Зарегистрирован: 09 апр 2015, 20:00


  • Похожие торренты
    Ответы
    Просмотры
    Последнее сообщение

Вернуться в Кино СССР, Советской России, Российской республики (1917-1991)

Ресурс не предоставляет электронные версии произведений, а занимается лишь коллекционированием и каталогизацией ссылок, присылаемых и публикуемых на форуме нашими читателями. Если вы являетесь правообладателем какого-либо представленного материала и не желаете чтобы ссылка на него находилась в нашем каталоге, свяжитесь с нами и мы незамедлительно удалим её. Файлы для обмена на трекере предоставлены пользователями сайта, и администрация не несёт ответственности за их содержание. Просьба не заливать файлы, защищенные авторскими правами, а также файлы нелегального содержания!
cron