Рыцарский замок (1990) SATRip-AVC от KORSAR

 
 Статистика раздачи 
Размер: 1.31 ГБ   |  Зарегистрирован: 02 май 2019, 01:53   |   .torrent скачан: 0 раз
Сидеров: 1  [ 0 байт/сек ]     Личеров: 0  [ 0 байт/сек ]  
  

Рыцарский замок (1990) SATRip-AVC от KORSAR

Сообщение aLaVodka » 02 май 2019, 03:12

Рыцарский замок

Жанр: приключения, история
Год выпуска: 1990
Продолжительность: 01:19:09
Режиссёр: Сергей Тарасов
В ролях:Александр Кознов, Денис Трушко, Ольга Кабо, Евгений Парамонов, Борис Химичев, Александр Иншаков, Алексей Панькин, Юрий Слободенюк, Сергей Тарасов, Алексей Колесник

Описание: 14-й век. На границе владений Великого Новгорода и Ливонского ордена занял оборону отряд воинов под предводительством отважного Всеслава. Во время приграничной стычки Всеслав попадает в плен и оказывается в замке рыцаря Ромуальда — Нейгаузен. Хозяева относятся к пленному, как к гостю. Вскоре замок навещает тевтонский рыцарь Эвальд, влюбленный в Эмму, жену Ромуальда. Он мечтает завладеть и замком, и его хозяйкой…


Релиз от:

Качество: SATRip-AVC
Видео: MPEG-4 AVC, 692x574@772x574, 25 fps, 2122 Кбит/с
Аудио: AC3, 2 ch, 192 Кбит/с
Язык: Русский



x264 [info]: frame I:701 Avg QP:16.94 size: 65649
x264 [info]: frame P:26690 Avg QP:18.68 size: 27999
x264 [info]: frame B:91349 Avg QP:20.71 size: 5404
x264 [info]: consecutive B-frames: 2.1% 2.6% 10.2% 17.3% 22.6% 40.7% 3.8% 0.6% 0.2%
-----------------------------------------------------------------------------
Общее
Уникальный идентификатор : 190852613988107083867036105915479377982 (0x8F94E05D59ECF4A984ADAF2F8AFC483E)
Полное имя : D:Рыцарский замок_1990-SATRip-AVC_KORSAR.mkv
Формат : Matroska
Версия формата : Version 2
Размер файла : 1,31 Гбайт
Продолжительность : 1 ч. 19 м.
Общий поток : 2361 Кбит/сек
Дата кодирования : UTC 2019-04-28 13:55:08
Программа кодирования : mkvmerge v5.8.0 ('No Sleep / Pillow') built on Sep 2 2012 15:37:04
Библиотека кодирования : libebml v1.2.3 + libmatroska v1.3.0

Видео
Идентификатор : 1
Формат : AVC
Формат/Информация : Advanced Video Codec
Профиль формата : High@L4.1
Параметр CABAC формата : Да
Параметр ReFrames формата : 15 кадров
Идентификатор кодека : V_MPEG4/ISO/AVC
Продолжительность : 1 ч. 19 м.
Битрейт : 2122 Кбит/сек
Ширина : 692 пикселя
Высота : 574 пикселя
Соотношение сторон : 4:3
Режим частоты кадров : Постоянный
Частота кадров : 25,000 кадров/сек
Цветовое пространство : YUV
Субдискретизация насыщенности : 4:2:0
Битовая глубина : 8 бит
Тип развёртки : Прогрессивная
Бит/(Пиксели*Кадры) : 0.214
Размер потока : 1,17 Гбайт (90%)
Библиотека кодирования : x264 core 152 r2851kMod ba24899
Настройки программы : cabac=1 / ref=15 / deblock=1:-2:-1 / analyse=0x3:0x133 / me=umh / subme=10 / psy=1 / fade_compensate=0.00 / psy_rd=1.05:0.10 / mixed_ref=1 / me_range=40 / chroma_me=1 / trellis=2 / 8x8dct=1 / cqm=0 / deadzone=21,11 / fast_pskip=1 / chroma_qp_offset=-3 / threads=12 / lookahead_threads=2 / sliced_threads=0 / nr=0 / decimate=1 / interlaced=0 / bluray_compat=0 / constrained_intra=0 / bframes=8 / b_pyramid=2 / b_adapt=2 / b_bias=0 / direct=1 / weightb=1 / open_gop=0 / weightp=2 / keyint=250 / keyint_min=25 / scenecut=40 / intra_refresh=0 / rc=crf / mbtree=0 / crf=18.0000 / qcomp=0.63 / qpmin=0 / qpmax=30 / qpstep=4 / ip_ratio=1.40 / pb_ratio=1.30 / aq=1:1.00
Язык : English
Default : Да
Forced : Нет
Основные цвета : BT.601 PAL
Характеристики трансфера : BT.470 System B, BT.470 System G
Коэффициенты матрицы : BT.601

Аудио
Идентификатор : 2
Формат : AC-3
Формат/Информация : Audio Coding 3
Расширение режима : CM (complete main)
Параметр Endianness формата : Big
Идентификатор кодека : A_AC3
Продолжительность : 1 ч. 19 м.
Вид битрейта : Постоянный
Битрейт : 192 Кбит/сек
Каналы : 2 канала
Расположение каналов : Front: L R
Частота : 48,0 КГц
Битовая глубина : 16 бит
Метод сжатия : С потерями
Размер потока : 109 Мбайт (8%)
Язык : Russian
Default : Да
Forced : Нет

 
Не забывайте говорить Спасибо. Не уходите с раздачи!   
Торрент: Зарегистрирован [02 май 2019, 01:53] Скачать торрент
Скачать торрент
[ Размер 13.99 КБ / Просмотров 1 ]
Статус:
Проверен
 
.torrent скачан: 0 раз
Хэш: cb7eadd9fcb8f00b10ca57bedd75483bbfdbca82
Размер: 1.31 ГБ (1 402 011 192 байт)
Стать Автором раздачи
 
 
Раздал: 100 ГБ
Скачал: 0 байт
Ратио: Seed.
Сообщения: 196180
Зарегистрирован: 09 апр 2015, 20:00


  • Похожие торренты
    Ответы
    Просмотры
    Последнее сообщение

Вернуться в Кино СССР, Советской России, Российской республики (1917-1991)

Ресурс не предоставляет электронные версии произведений, а занимается лишь коллекционированием и каталогизацией ссылок, присылаемых и публикуемых на форуме нашими читателями. Если вы являетесь правообладателем какого-либо представленного материала и не желаете чтобы ссылка на него находилась в нашем каталоге, свяжитесь с нами и мы незамедлительно удалим её. Файлы для обмена на трекере предоставлены пользователями сайта, и администрация не несёт ответственности за их содержание. Просьба не заливать файлы, защищенные авторскими правами, а также файлы нелегального содержания!
cron