Мама вышла замуж (1969) DVDRip-AVC от KORSAR

 
 Статистика раздачи 
Размер: 1.75 ГБ   |  Зарегистрирован: 02 май 2019, 01:46   |   .torrent скачан: 0 раз
Сидеров: 1  [ 0 байт/сек ]     Личеров: 0  [ 0 байт/сек ]  
  

Мама вышла замуж (1969) DVDRip-AVC от KORSAR

Сообщение aLaVodka » 02 май 2019, 03:11

Мама вышла замуж

Жанр: Мелодрама
Год выпуска: 1969
Продолжительность: 01:20:18
Режиссёр: Виталий Мельников
В ролях: Люсьена Овчинникова, Олег Ефремов, Николай Бурляев, Лариса Буркова, Константин Тягунов, Виктор Ильичев, Людмила Аринина, Аркадий Трусов, В.Никольская, К.Петрова, Лидия Штыкан, А.Орлов

Описание: Всю жизнь проработав на стройке, Зина одна вырастила сына, и вот теперь, когда сын стал почти взрослым, в ее жизни появился Виктор, с которым ей хорошо и спокойно. Тут бы и отведать ей позднего женского счастья, однако, это решение не находит одобрения у сына Бориса, привыкшего, что мама принадлежит только ему…

Релиз от:

Качество: DVDRip-AVC
Видео: MPEG-4 AVC, 706x480@706x540, 25 fps, 2413 Кбит/с
Аудио 1: AC3, 6 ch, 448 Кбит/с
Аудио 2: AC3, 2 ch, 192 Кбит/с
Язык: Русский
Субтитры: Русские



x264 [info]: frame I:561 Avg QP:17.67 size: 53314
x264 [info]: frame P:28868 Avg QP:19.03 size: 28087
x264 [info]: frame B:91019 Avg QP:21.33 size: 7128
x264 [info]: consecutive B-frames: 1.5% 4.2% 14.2% 22.9% 27.0% 28.0% 1.7% 0.4% 0.1% 0.1%
Общее
Уникальный идентификатор : 229346984650973740215041309489824520522 (0xAC8A9F5EBE5E4B638519D2A83353D94A)
Полное имя : D:Мама вышла замуж_1969-DVDRip-AVC_KORSAR.mkv
Формат : Matroska
Версия формата : Version 2
Размер файла : 1,75 Гбайт
Продолжительность : 1 ч. 20 м.
Общий поток : 3115 Кбит/сек
Название фильма : Мама вышла замуж_1969-DVDRip-AVC_KORSAR
Дата кодирования : UTC 2019-04-27 12:08:55
Программа кодирования : mkvmerge v5.8.0 ('No Sleep / Pillow') built on Sep 2 2012 15:37:04
Библиотека кодирования : libebml v1.2.3 + libmatroska v1.3.0

Видео
Идентификатор : 1
Формат : AVC
Формат/Информация : Advanced Video Codec
Профиль формата : High@L4.1
Параметр CABAC формата : Да
Параметр ReFrames формата : 16 кадров
Идентификатор кодека : V_MPEG4/ISO/AVC
Продолжительность : 1 ч. 20 м.
Битрейт : 2413 Кбит/сек
Ширина : 706 пикселей
Высота : 480 пикселей
Соотношение сторон : 4:3
Режим частоты кадров : Постоянный
Частота кадров : 25,000 кадров/сек
Цветовое пространство : YUV
Субдискретизация насыщенности : 4:2:0
Битовая глубина : 8 бит
Тип развёртки : Прогрессивная
Бит/(Пиксели*Кадры) : 0.285
Размер потока : 1,35 Гбайт (77%)
Библиотека кодирования : x264 core 152 r2851kMod ba24899
Настройки программы : cabac=1 / ref=16 / deblock=1:-2:-1 / analyse=0x3:0x133 / me=umh / subme=10 / psy=1 / fade_compensate=0.00 / psy_rd=1.05:0.10 / mixed_ref=1 / me_range=40 / chroma_me=1 / trellis=2 / 8x8dct=1 / cqm=0 / deadzone=21,11 / fast_pskip=1 / chroma_qp_offset=-3 / threads=12 / lookahead_threads=2 / sliced_threads=0 / nr=0 / decimate=1 / interlaced=0 / bluray_compat=0 / constrained_intra=0 / bframes=9 / b_pyramid=2 / b_adapt=2 / b_bias=0 / direct=1 / weightb=1 / open_gop=0 / weightp=2 / keyint=250 / keyint_min=25 / scenecut=40 / intra_refresh=0 / rc=crf / mbtree=0 / crf=17.6000 / qcomp=0.63 / qpmin=0 / qpmax=30 / qpstep=4 / ip_ratio=1.40 / pb_ratio=1.30 / aq=1:1.00
Язык : English
Default : Да
Forced : Нет
Основные цвета : BT.601 NTSC
Характеристики трансфера : BT.601
Коэффициенты матрицы : BT.601

Аудио #1
Идентификатор : 2
Формат : AC-3
Формат/Информация : Audio Coding 3
Расширение режима : CM (complete main)
Параметр Endianness формата : Big
Идентификатор кодека : A_AC3
Продолжительность : 1 ч. 20 м.
Вид битрейта : Постоянный
Битрейт : 448 Кбит/сек
Каналы : 6 каналов
Расположение каналов : Front: L C R, Side: L R, LFE
Частота : 48,0 КГц
Битовая глубина : 16 бит
Метод сжатия : С потерями
Задержка видео : 20 мс.
Размер потока : 257 Мбайт (14%)
Язык : Russian
Default : Да
Forced : Нет

Аудио #2
Идентификатор : 3
Формат : AC-3
Формат/Информация : Audio Coding 3
Расширение режима : CM (complete main)
Параметр Endianness формата : Big
Идентификатор кодека : A_AC3
Продолжительность : 1 ч. 20 м.
Вид битрейта : Постоянный
Битрейт : 192 Кбит/сек
Каналы : 2 канала
Расположение каналов : Front: L R
Частота : 48,0 КГц
Битовая глубина : 16 бит
Метод сжатия : С потерями
Задержка видео : 20 мс.
Размер потока : 110 Мбайт (6%)
Язык : Russian
Default : Нет
Forced : Нет

Текст
Идентификатор : 4
Формат : UTF-8
Идентификатор кодека : S_TEXT/UTF8
Идентификатор кодека/Информация : UTF-8 Plain Text
Язык : Russian
Default : Нет
Forced : Нет

Трансфер PAL>NTSC.
Плавающее наполнение кадра.
 
Не забывайте говорить Спасибо. Не уходите с раздачи!   
Торрент: Зарегистрирован [02 май 2019, 01:46] Скачать торрент
Скачать торрент
[ Размер 18.41 КБ / Просмотров 1 ]
Статус:
Проверен
 
.torrent скачан: 0 раз
Хэш: 4838672d9db05f029f0285166d2c9083f7e1a9ab
Размер: 1.75 ГБ (1 876 187 220 байт)
Стать Автором раздачи
 
 
Раздал: 100 ГБ
Скачал: 0 байт
Ратио: Seed.
Сообщения: 195771
Зарегистрирован: 09 апр 2015, 20:00


  • Похожие торренты
    Ответы
    Просмотры
    Последнее сообщение

Вернуться в Кино СССР, Советской России, Российской республики (1917-1991)

Ресурс не предоставляет электронные версии произведений, а занимается лишь коллекционированием и каталогизацией ссылок, присылаемых и публикуемых на форуме нашими читателями. Если вы являетесь правообладателем какого-либо представленного материала и не желаете чтобы ссылка на него находилась в нашем каталоге, свяжитесь с нами и мы незамедлительно удалим её. Файлы для обмена на трекере предоставлены пользователями сайта, и администрация не несёт ответственности за их содержание. Просьба не заливать файлы, защищенные авторскими правами, а также файлы нелегального содержания!
cron