Здравия желаю! или Бешеный дембель (1990) DVDRip-AVC от KORSAR

 
 Статистика раздачи 
Размер: 974.7 МБ   |  Зарегистрирован: 02 май 2019, 01:34   |   .torrent скачан: 0 раз
Сидеров: 1  [ 0 байт/сек ]     Личеров: 0  [ 0 байт/сек ]  
  

Здравия желаю! или Бешеный дембель (1990) DVDRip-AVC от KORSAR

Сообщение aLaVodka » 02 май 2019, 02:31

Здравия желаю! или Бешеный дембель

Год выпуска: 1990
Страна: СССР
Жанр: комедия
Продолжительность: 01:15:32
Режиссер: Юрий Волкогон
В ролях: Антон Андросов, Михаил Кононов, Виктор Ильичёв, Юрий Катин-Ярцев, Виктор Соловьёв, Вячеслав Кириличев, Николай Гейко, Олег Комаров.

Описание: Бывший пэтэушник Митя Агафонов (Антон Андросов - "Плюмбум, или опасная игра") призван на службу в ряды доблестной Советсвкой Армии. Он рад и счастлив защищать Родину и готов оправдать оказанное ему высокое доверие. И как можно быстрее! С первых же дней он готов выполнять любые, даже самые нелепые и идиотские приказы командиров и "дедов". Только вот выполнение этих самых приказов неизменно приводит к беде. Выдраить туалет? Не вопрос! Починить командиру телевизор? Без проблем! Лучше бы он этого не делал... Туалет превращается в ледовый каток, телевизор принимает только буржуйские эротические каналы... Скоро всем в части становится ясно, что от такого бравого солдата можно ожидать чего угодно и что будет лучше - как можно скорей от него избавиться.


Релиз от:

Качество: DVDRip-AVC
Видео: MPEG-4 AVC, 700x576@746x576, 25 fps, 1576 Кбит/с
Аудио: AC3, 2 ch, 192 Кбит/с
Язык: Русский



x264 [info]: frame I:709 Avg QP:15.58 size: 63236
x264 [info]: frame P:22210 Avg QP:17.38 size: 23553
x264 [info]: frame B:90407 Avg QP:19.61 size: 3808
x264 [info]: consecutive B-frames: 1.4% 1.5% 5.1% 10.8% 21.1% 45.0% 8.7% 3.4% 1.3% 1.2% 0.4% 0.2%
Общее
Уникальный идентификатор : 214180942512766090532630388009150217089 (0xA121BFC3113EA945A9DA72AD4A207B81)
Полное имя : D:Здравия желаю или Бешеный дембель_1990-DVDRip-AVC_KORSAR.mkv
Формат : Matroska
Версия формата : Version 2
Размер файла : 975 Мбайт
Продолжительность : 1 ч. 15 м.
Общий поток : 1804 Кбит/сек
Название фильма : Здравия желаю или Бешеный дембель_1990-DVDRip-AVC_KORSAR
Дата кодирования : UTC 2019-04-24 17:22:01
Программа кодирования : mkvmerge v5.8.0 ('No Sleep / Pillow') built on Sep 2 2012 15:37:04
Библиотека кодирования : libebml v1.2.3 + libmatroska v1.3.0

Видео
Идентификатор : 1
Формат : AVC
Формат/Информация : Advanced Video Codec
Профиль формата : High@L4.1
Параметр CABAC формата : Да
Параметр ReFrames формата : 15 кадров
Идентификатор кодека : V_MPEG4/ISO/AVC
Продолжительность : 1 ч. 15 м.
Битрейт : 1576 Кбит/сек
Ширина : 700 пикселей
Высота : 576 пикселей
Соотношение сторон : 1,295
Соотношение сторон в оригинале : 1,296
Режим частоты кадров : Постоянный
Частота кадров : 25,000 кадров/сек
Цветовое пространство : YUV
Субдискретизация насыщенности : 4:2:0
Битовая глубина : 8 бит
Тип развёртки : Прогрессивная
Бит/(Пиксели*Кадры) : 0.156
Размер потока : 852 Мбайт (87%)
Библиотека кодирования : x264 core 152 r2851kMod ba24899
Настройки программы : cabac=1 / ref=15 / deblock=1:-2:-1 / analyse=0x3:0x133 / me=umh / subme=10 / psy=1 / fade_compensate=0.00 / psy_rd=1.05:0.10 / mixed_ref=1 / me_range=40 / chroma_me=1 / trellis=2 / 8x8dct=1 / cqm=0 / deadzone=21,11 / fast_pskip=1 / chroma_qp_offset=-3 / threads=12 / lookahead_threads=3 / sliced_threads=0 / nr=0 / decimate=1 / interlaced=0 / bluray_compat=0 / constrained_intra=0 / bframes=11 / b_pyramid=2 / b_adapt=2 / b_bias=0 / direct=1 / weightb=1 / open_gop=0 / weightp=2 / keyint=250 / keyint_min=25 / scenecut=40 / intra_refresh=0 / rc=crf / mbtree=0 / crf=18.0000 / qcomp=0.63 / qpmin=0 / qpmax=30 / qpstep=4 / ip_ratio=1.40 / pb_ratio=1.30 / aq=1:1.00
Язык : English
Default : Да
Forced : Нет
Основные цвета : BT.601 PAL
Характеристики трансфера : BT.470 System B, BT.470 System G
Коэффициенты матрицы : BT.601

Аудио
Идентификатор : 2
Формат : AC-3
Формат/Информация : Audio Coding 3
Расширение режима : CM (complete main)
Параметр Endianness формата : Big
Идентификатор кодека : A_AC3
Продолжительность : 1 ч. 15 м.
Вид битрейта : Постоянный
Битрейт : 192 Кбит/сек
Каналы : 2 канала
Расположение каналов : Front: L R
Частота : 48,0 КГц
Битовая глубина : 16 бит
Метод сжатия : С потерями
Размер потока : 104 Мбайт (11%)
Язык : Russian
Default : Да
Forced : Нет

 
Не забывайте говорить Спасибо. Не уходите с раздачи!   
Торрент: Зарегистрирован [02 май 2019, 01:34] Скачать торрент
Скачать торрент
[ Размер 20 КБ / Просмотров 1 ]
Статус:
Проверен
 
.torrent скачан: 0 раз
Хэш: f259e1542bf5a4f477a9b60ee9b1decbfdce45c9
Размер: 974.7 МБ (1 022 047 207 байт)
Стать Автором раздачи
 
 
Раздал: 100 ГБ
Скачал: 0 байт
Ратио: Seed.
Сообщения: 196180
Зарегистрирован: 09 апр 2015, 20:00


  • Похожие торренты
    Ответы
    Просмотры
    Последнее сообщение

Вернуться в Кино СССР, Советской России, Российской республики (1917-1991)

Ресурс не предоставляет электронные версии произведений, а занимается лишь коллекционированием и каталогизацией ссылок, присылаемых и публикуемых на форуме нашими читателями. Если вы являетесь правообладателем какого-либо представленного материала и не желаете чтобы ссылка на него находилась в нашем каталоге, свяжитесь с нами и мы незамедлительно удалим её. Файлы для обмена на трекере предоставлены пользователями сайта, и администрация не несёт ответственности за их содержание. Просьба не заливать файлы, защищенные авторскими правами, а также файлы нелегального содержания!
cron