Мусоргский (1950) DVDRip-AVC от KORSAR

 
 Статистика раздачи 
Размер: 2.86 ГБ   |  Зарегистрирован: 29 апр 2019, 19:30   |   .torrent скачан: 0 раз
Сидеров: 1  [ 0 байт/сек ]     Личеров: 0  [ 0 байт/сек ]  
  

Мусоргский (1950) DVDRip-AVC от KORSAR

Сообщение aLaVodka » 30 апр 2019, 18:10

Мусоргский

Информация о фильме
Жанр: драма, биография
Год выпуска: 1950
Режиссер: Григорий Рошаль
В ролях: Александр Борисов, Николай Черкасов, Владимир Балашов, Андрей Попов, Бруно Фрейндлих, Федор Никитин, Любовь Орлова, Лидия Штыкан, Валентина Ушакова, Лидия Сухаревская, Иван Дмитриев, Константин Адашевский, Герман Орлов, Григорий Шпигель, Василий Сафронов, Лев Фенин

О фильме:
Фильм рассказывает о великом русском композиторе Модесте Петровиче Мусоргском, его сотрудничестве с "Могучей кучкой" и первой постановке на сцене Мариинского театра оперы "Борис Годунов"


Страна: СССР
Производство: Ленфильм
Продолжительность: 01:53:21
Перевод: Не требуется

Файл
Формат: MKV
Качество: DVDRip (AVC)
Видео: MPEG-4 AVC, 682x564@728x564, 25 fps, 3421 Кбит/с
Аудио: Русский, AC3, 2 ch, 192 Кбит/с
Cубтитры: нет
Навигация по главам: есть

x264 [info]: frame I:878 Avg QP:18.19 size: 72695
x264 [info]: frame P:33889 Avg QP:19.75 size: 40983
x264 [info]: frame B:135277 Avg QP:21.61 size: 10760
x264 [info]: consecutive B-frames: 0.7% 0.8% 4.3% 19.2% 24.5% 42.3% 6.2% 1.6% 0.2% 0.1% 0.0% 0.0% 0.0%

General
Unique ID : 95999718381450884339098806974806692923 (0x4838DF8BE4C6B16878BDADE6BE9B143B)
Complete name : S:FILMSМусоргский (1950) DVDRip-AVC - KORSAR.mkv
Format : Matroska
Format version : Version 4 / Version 2
File size : 2.86 GiB
Duration : 1 h 53 min
Overall bit rate : 3 615 kb/s
Movie name : Мусоргский (1950)_rip_by_Cthulhu
Encoded date : UTC 2019-04-28 16:40:56
Writing application : mkvmerge v28.2.0 ('The Awakening') 64-bit
Writing library : libebml v1.3.6 + libmatroska v1.4.9
Cover : Yes
Attachments : cover2.png

Video
ID : 1
Format : AVC
Format/Info : Advanced Video Codec
Format profile : High@L4.1
Format settings, CABAC : Yes
Format settings, RefFrames : 16 frames
Codec ID : V_MPEG4/ISO/AVC
Duration : 1 h 53 min
Bit rate : 3 421 kb/s
Width : 682 pixels
Height : 564 pixels
Display aspect ratio : 1.289
Original display aspect ratio : 1.290
Frame rate mode : Constant
Frame rate : 25.000 FPS
Color space : YUV
Chroma subsampling : 4:2:0
Bit depth : 8 bits
Scan type : Progressive
Bits/(Pixel*Frame) : 0.356
Stream size : 2.71 GiB (95%)
Writing library : x264 core 152 r2851kMod ba24899
Encoding settings : cabac=1 / ref=16 / deblock=1:-2:-1 / analyse=0x3:0x133 / me=umh / subme=11 / psy=1 / fade_compensate=0.00 / psy_rd=1.03:0.05 / mixed_ref=1 / me_range=48 / chroma_me=1 / trellis=2 / 8x8dct=1 / cqm=0 / deadzone=21,11 / fast_pskip=1 / chroma_qp_offset=-3 / threads=16 / lookahead_threads=4 / sliced_threads=0 / nr=0 / decimate=1 / interlaced=0 / bluray_compat=0 / constrained_intra=0 / bframes=12 / b_pyramid=2 / b_adapt=2 / b_bias=0 / direct=3 / weightb=1 / open_gop=0 / weightp=2 / keyint=250 / keyint_min=25 / scenecut=40 / intra_refresh=0 / rc_lookahead=60 / rc=crf / mbtree=0 / crf=18.0000 / qcomp=0.63 / qpmin=0 / qpmax=39 / qpstep=4 / vbv_maxrate=50000 / vbv_bufsize=62500 / crf_max=0.0 / nal_hrd=none / filler=0 / ip_ratio=1.40 / pb_ratio=1.30 / aq=2:1.00
Language : Russian
Default : Yes
Forced : No
Color range : Limited
Color primaries : BT.601 PAL
Transfer characteristics : BT.470 System B, BT.470 System G
Matrix coefficients : BT.601

Audio
ID : 2
Format : AC-3
Format/Info : Audio Coding 3
Mode extension : CM (complete main)
Format settings, Endianness : Big
Codec ID : A_AC3
Duration : 1 h 53 min
Bit rate mode : Constant
Bit rate : 192 kb/s
Channel(s) : 2 channels
Channel positions : Front: L R
Sampling rate : 48.0 kHz
Frame rate : 31.250 FPS (1536 spf)
Compression mode : Lossy
Stream size : 156 MiB (5%)
Language : Russian
Default : Yes
Forced : No

Menu
00:00:00.000 : en:Chapter 1
00:11:55.200 : en:Chapter 2
00:21:41.760 : en:Chapter 3
00:30:57.480 : en:Chapter 4
00:40:03.480 : en:Chapter 5
00:52:10.320 : en:Chapter 6
00:57:40.360 : en:Chapter 7
01:08:33.640 : en:Chapter 8
01:18:07.720 : en:Chapter 9
01:29:16.240 : en:Chapter 10
01:39:07.960 : en:Chapter 11
01:51:52.240 : en:Chapter 12



Релиз от: Cthulhu
 
Не забывайте говорить Спасибо. Не уходите с раздачи!   
Торрент: Зарегистрирован [29 апр 2019, 19:30] Скачать торрент
Скачать торрент
[ Размер 15.33 КБ / Просмотров 0 ]
Статус:
Проверен
 
.torrent скачан: 0 раз
Хэш: c5265b4e684d99b235b8a33cc9f515b3de4599b6
Размер: 2.86 ГБ (3 073 288 453 байт)
Стать Автором раздачи
 
 
Раздал: 100 ГБ
Скачал: 0 байт
Ратио: Seed.
Сообщения: 196180
Зарегистрирован: 09 апр 2015, 20:00


  • Похожие торренты
    Ответы
    Просмотры
    Последнее сообщение

Вернуться в Кино СССР, Советской России, Российской республики (1917-1991)

Ресурс не предоставляет электронные версии произведений, а занимается лишь коллекционированием и каталогизацией ссылок, присылаемых и публикуемых на форуме нашими читателями. Если вы являетесь правообладателем какого-либо представленного материала и не желаете чтобы ссылка на него находилась в нашем каталоге, свяжитесь с нами и мы незамедлительно удалим её. Файлы для обмена на трекере предоставлены пользователями сайта, и администрация не несёт ответственности за их содержание. Просьба не заливать файлы, защищенные авторскими правами, а также файлы нелегального содержания!
cron