Пять минут страха (1985) DVDRip-AVC от KORSAR

 
 Статистика раздачи 
Размер: 1.57 ГБ   |  Зарегистрирован: 29 апр 2019, 18:27   |   .torrent скачан: 0 раз
Сидеров: 1  [ 0 байт/сек ]     Личеров: 0  [ 0 байт/сек ]  
  

Пять минут страха (1985) DVDRip-AVC от KORSAR

Сообщение aLaVodka » 30 апр 2019, 18:10

Пять минут страха

Информация о фильме
Жанр: Детектив, криминал
Год выпуска: 1985
Режиссер: Андрей Ладынин
В ролях: Анатолий Кузнецов, Евгений Герасимов, Леонид Куравлев, Вячеслав Езепов, Владимир Носик, Валерий Баринов, Алексей Панькин, Андрей Гусев, Олег Савосин, Геннадий Ялович

О фильме:
У обочины дороги обнаружен труп. Пока нашедший вызывал милицию, тело пропало... а вместе с ним и, лежавший рядом, чемоданчик с инструментами. Сотрудники уголовного розыска определили личность потерпевшего, которым оказался некто Лев Котлуков - известный "медвежатник". Чтобы раскрыть это преступление, оперативники решают внедрить в банду своего человека...



Страна: СССР
Производство: Мосфильм
Продолжительность: 01:23:50
Перевод: Не требуется

Файл
Формат: MKV
Качество: DVDRip (AVC)
Видео: MPEG-4 AVC, 700x412@746x412, 25 fps, 2487 Кбит/с
Аудио: Русский, AC3, 2 ch, 192 Кбит/с
Cубтитры: нет
Навигация по главам: есть
x264 [info]: frame I:696 Avg QP:16.50 size: 54925
x264 [info]: frame P:26342 Avg QP:17.96 size: 31587
x264 [info]: frame B:98712 Avg QP:19.72 size: 7027
x264 [info]: consecutive B-frames: 1.5% 2.6% 6.0% 12.7% 22.5% 50.0% 4.3% 0.4% 0.0% 0.0%

General
Unique ID : 83161655798578865189702104839986664873 (0x3E905A312AC882F7143F690E0FF0D5A9)
Complete name : S:FILMSПять минут страха (1985) DVDRip-AVC - KORSAR.mkv
Format : Matroska
Format version : Version 4 / Version 2
File size : 1.57 GiB
Duration : 1 h 23 min
Overall bit rate : 2 681 kb/s
Movie name : Пять минут страха (1985)_rip_by_Cthulhu
Encoded date : UTC 2019-04-26 21:58:04
Writing application : mkvmerge v28.2.0 ('The Awakening') 64-bit
Writing library : libebml v1.3.6 + libmatroska v1.4.9
Cover : Yes
Attachments : cover.jpg

Video
ID : 1
Format : AVC
Format/Info : Advanced Video Codec
Format profile : High@L4.1
Format settings, CABAC : Yes
Format settings, RefFrames : 13 frames
Codec ID : V_MPEG4/ISO/AVC
Duration : 1 h 23 min
Bit rate : 2 487 kb/s
Width : 700 pixels
Height : 412 pixels
Display aspect ratio : 16:9
Original display aspect ratio : 16:9
Frame rate mode : Constant
Frame rate : 25.000 FPS
Color space : YUV
Chroma subsampling : 4:2:0
Bit depth : 8 bits
Scan type : Progressive
Bits/(Pixel*Frame) : 0.345
Stream size : 1.46 GiB (93%)
Writing library : x264 core 152 r2851kMod ba24899
Encoding settings : cabac=1 / ref=13 / deblock=1:-2:-2 / analyse=0x3:0x133 / me=umh / subme=11 / psy=1 / fade_compensate=0.00 / psy_rd=1.00:0.05 / mixed_ref=1 / me_range=32 / chroma_me=1 / trellis=2 / 8x8dct=1 / cqm=0 / deadzone=21,11 / fast_pskip=1 / chroma_qp_offset=-3 / threads=16 / lookahead_threads=2 / sliced_threads=0 / nr=0 / decimate=1 / interlaced=0 / bluray_compat=0 / constrained_intra=0 / bframes=9 / b_pyramid=2 / b_adapt=2 / b_bias=0 / direct=3 / weightb=1 / open_gop=0 / weightp=2 / keyint=250 / keyint_min=25 / scenecut=40 / intra_refresh=0 / rc_lookahead=60 / rc=crf / mbtree=0 / crf=17.0000 / qcomp=0.60 / qpmin=0 / qpmax=39 / qpstep=4 / vbv_maxrate=50000 / vbv_bufsize=62500 / crf_max=0.0 / nal_hrd=none / filler=0 / ip_ratio=1.40 / pb_ratio=1.30 / aq=3:1.00
Language : Russian
Default : Yes
Forced : No
Color range : Limited
Color primaries : BT.601 PAL
Transfer characteristics : BT.470 System B, BT.470 System G
Matrix coefficients : BT.601

Audio
ID : 2
Format : AC-3
Format/Info : Audio Coding 3
Mode extension : CM (complete main)
Format settings, Endianness : Big
Codec ID : A_AC3
Duration : 1 h 23 min
Bit rate mode : Constant
Bit rate : 192 kb/s
Channel(s) : 2 channels
Channel positions : Front: L R
Sampling rate : 48.0 kHz
Frame rate : 31.250 FPS (1536 spf)
Compression mode : Lossy
Stream size : 115 MiB (7%)
Language : Russian
Default : Yes
Forced : No

Menu
00:00:00.000 : en:Chapter 1
00:07:55.520 : en:Chapter 2
00:16:38.040 : en:Chapter 3
00:24:15.560 : en:Chapter 4
00:33:03.040 : en:Chapter 5
00:41:57.400 : en:Chapter 6
00:50:37.520 : en:Chapter 7
00:57:36.040 : en:Chapter 8
01:04:47.640 : en:Chapter 9
01:11:05.920 : en:Chapter 10
01:16:37.560 : en:Chapter 11
01:23:48.520 : en:Chapter 12
01:23:49.960 : en:Chapter 13


Релиз от: Cthulhu
 
Не забывайте говорить Спасибо. Не уходите с раздачи!   
Торрент: Зарегистрирован [29 апр 2019, 18:27] Скачать торрент
Скачать торрент
[ Размер 16.72 КБ / Просмотров 1 ]
Статус:
Проверен
 
.torrent скачан: 0 раз
Хэш: b075f7864445bae52b2c32f9c2787db6b4541427
Размер: 1.57 ГБ (1 685 895 781 байт)
Стать Автором раздачи
 
 
Раздал: 100 ГБ
Скачал: 0 байт
Ратио: Seed.
Сообщения: 196180
Зарегистрирован: 09 апр 2015, 20:00


  • Похожие торренты
    Ответы
    Просмотры
    Последнее сообщение

Вернуться в Кино СССР, Советской России, Российской республики (1917-1991)

Ресурс не предоставляет электронные версии произведений, а занимается лишь коллекционированием и каталогизацией ссылок, присылаемых и публикуемых на форуме нашими читателями. Если вы являетесь правообладателем какого-либо представленного материала и не желаете чтобы ссылка на него находилась в нашем каталоге, свяжитесь с нами и мы незамедлительно удалим её. Файлы для обмена на трекере предоставлены пользователями сайта, и администрация не несёт ответственности за их содержание. Просьба не заливать файлы, защищенные авторскими правами, а также файлы нелегального содержания!
cron