Куклы смеются (1963) SATRip от New-Team

 
 Статистика раздачи 
Размер: 1.09 ГБ   |  Зарегистрирован: 27 апр 2019, 11:06   |   .torrent скачан: 0 раз
Сидеров: 1  [ 0 байт/сек ]     Личеров: 0  [ 0 байт/сек ]  
  

Куклы смеются (1963) SATRip от New-Team

Сообщение explosiveone » 27 апр 2019, 12:30

Страна: СССР
Производство: Грузия-фильм

Жанр: мюзикл, мелодрама, комедия
Год выпуска: 1963
Продолжительность: 01:26:09

Перевод: Не требуется
Cубтитры: нет
Оригинальная аудиодорожка: русский

Режиссер: Николай Санишвили

В ролях:
Мераб Тавадзе, Сесилия Такаишвили, Ипполит Хвичия, Марина Тбилели, Меги Кежерадзе, Эроси Манджгаладзе, Георгий Габелашвили, Александр (Сандро) Жоржолиани, Вахтанг Сулаквелидзе, Джульетта Вашакмадзе, Нино Чхеидзе, Жужуна Дугладзе, Ирина Магалашвили, Михаил Мгеладзе, Дудухана Церодзе, Гуранда Габуния, Картлос Касрадзе, Елена Кипшидзе, Х. Хуцишвили, Читолия Чхеидзе...
Об актёрах подробней

Описание:
Лирическая кинокомедия с участием целой плеяды выдающихся грузинских актеров, с замечательными песнями Сулхана Цинцадзе..
Мать и бабушка Резико мечтают, чтобы их ребенок, выпускник школы, учился в консерватории. Но Резико, ленясь готовиться к экзаменам, проваливается. О провале знает лишь отец юноши. Вдвоем они решают, что Резико будет учиться заочно, а сам пойдет работать на фабрику игрушек. Забавные приключения, смешные и неправдоподобные ситуации, первая любовь ждут несостоявшегося студента...





Исходник: DVB
Качество видео: SATRip
Формат видео: AVI

Видео: 688x512 (4:3), 23,976 кадров/сек, XviD ~ 1610 kbps avg, 0.191 bit/pixel
Аудио: 48 kHz, Dolby Digital AC3 2.0, 192 kbps

Раздача от:
Общее
Полное имя : Kukly.smeyutsya.1963.SATRip_[New-team]_by_AVP_Studio.avi
Формат : AVI
Формат/Информация : Audio Video Interleave
Размер файла : 1,09 Гбайт
Продолжительность : 1 ч. 26 м.
Общий поток : 1811 Кбит/сек
Программа кодирования : VirtualDubMod 1.5.10.3 | www.virtualdub-fr.org || (build 2550/release)
Библиотека кодирования : VirtualDubMod build 2550/release

Видео
Идентификатор : 0
Формат : MPEG-4 Visual
Профиль формата : Advanced Simple@L5
Настройки формата : BVOP1 / Custom Matrix
Параметр BVOP формата : 1
Параметр QPel формата : Нет
Параметр GMC формата : Без точки перехода
Параметр матрицы формата : Выборочная
Идентификатор кодека : XVID
Идентификатор кодека/Подсказка : XviD
Продолжительность : 1 ч. 26 м.
Битрейт : 1610 Кбит/сек
Ширина : 688 пикселей
Высота : 512 пикселей
Соотношение сторон : 4:3
Частота кадров : 23,976 (24000/1001) кадра/сек
Частота кадров в оригинале : 23,976 (23976/1000) кадра/сек
Цветовое пространство : YUV
Субдискретизация насыщенности : 4:2:0
Битовая глубина : 8 бит
Тип развёртки : Прогрессивная
Метод сжатия : С потерями
Бит/(Пиксели*Кадры) : 0.191
Размер потока : 992 Мбайт (89%)
Библиотека кодирования : XviD 73

Аудио
Идентификатор : 1
Формат : AC-3
Формат/Информация : Audio Coding 3
Коммерческое название : Dolby Digital
Идентификатор кодека : 2000
Продолжительность : 1 ч. 26 м.
Вид битрейта : Постоянный
Битрейт : 192 Кбит/сек
Каналы : 2 канала
ChannelLayout : L R
Частота : 48,0 КГц
Частота кадров : 31,250 кадров/сек (1536 SPF)
Битовая глубина : 16 бит
Метод сжатия : С потерями
Размер потока : 118 Мбайт (11%)
Выравнивание : Разделение по промежуткам
Продолжительность промежутка : 42 мс. (1,00 видеокадр)
Время предзагрузки промежутка : 500 мс


 
Не забывайте говорить Спасибо. Не уходите с раздачи!   
Торрент: Зарегистрирован [27 апр 2019, 11:06] Скачать торрент
Скачать торрент
[ Размер 12.35 КБ / Просмотров 0 ]
Статус:
Проверен
 
.torrent скачан: 0 раз
Хэш: 93b60f8c19ea77218332c540351be6add3fb7152
Размер: 1.09 ГБ (1 170 358 272 байт)
Стать Автором раздачи
 
 
Раздал: 100 ГБ
Скачал: 0 байт
Ратио: Seed.
Сообщения: 112056
Зарегистрирован: 09 апр 2015, 22:31


  • Похожие торренты
    Ответы
    Просмотры
    Последнее сообщение

Вернуться в Кино СССР, Советской России, Российской республики (1917-1991)

Ресурс не предоставляет электронные версии произведений, а занимается лишь коллекционированием и каталогизацией ссылок, присылаемых и публикуемых на форуме нашими читателями. Если вы являетесь правообладателем какого-либо представленного материала и не желаете чтобы ссылка на него находилась в нашем каталоге, свяжитесь с нами и мы незамедлительно удалим её. Файлы для обмена на трекере предоставлены пользователями сайта, и администрация не несёт ответственности за их содержание. Просьба не заливать файлы, защищенные авторскими правами, а также файлы нелегального содержания!
cron