Выбор цели [01-02 из 02] (1975) DVDRip-AVC от KORSAR

 
 Статистика раздачи 
Размер: 2.28 ГБ   |  Зарегистрирован: 25 апр 2019, 20:07   |   .torrent скачан: 201 раз
Сидеров: 50  [ 0 байт/сек ]     Личеров: 18  [ 0 байт/сек ]  
  

Выбор цели [01-02 из 02] (1975) DVDRip-AVC от KORSAR

Сообщение explosiveone » 25 апр 2019, 21:35

Информация о фильме
Название: Выбор цели
Год выхода: 1975
Жанр: Драма, биография, история
Режиссер: Игорь Таланкин
В ролях: Сергей Бондарчук ст., Георгий Жжёнов, Николай Волков ст., Ирина Скобцева, Николай Бурляев, Алла Покровская, Михаил Ульянов, Иннокентий Смоктуновский, Сергей Юрский, Алла Демидова, Олег Басилашвили, Хорст Шульце, Милош Недбал, Фриц Дитц

О фильме: Фильм рассказывает о жизни выдающегося физика-атомщика, академика Игоря Курчатова. Прототипами героев картины стали и многие другие реальные персонажи истории, политические деятели и ученые разных стран, так или иначе причастные к созданию Советским Союзом атомного оружия.



Выпущено: СССР, Мосфильм
Продолжительность: 2 х ~ 01:10:00
Перевод: Не требуется

Файл
Кодек: х264
Качество: DVDRip-AVC
Видео: MPEG-4 AVC, 720x380@768x380, 25 fps, 2150 Кбит/с
Аудио: AC3, 2 ch, 192 Кбит/с
Субтитры: Нет

Релиз от:


Общее
Уникальный идентификатор : 195150040527530009836232176910014671242 (0x92D087D9FDCE73159FAB894DC6A8E98A)
Полное имя : Выбор.цели.1975.DVDRip-AVC.KORSAR.mkv
Формат : Matroska
Версия формата : Version 2
Размер файла : 1,17 Гбайт
Продолжительность : 1 ч. 11 м.
Общий поток : 2344 Кбит/сек
Дата кодирования : UTC 2017-01-03 13:32:21
Программа кодирования : mkvmerge v7.8.0 ('River Man') 32bit built on Apr 3 2015 12:11:22
Библиотека кодирования : libebml v1.3.1 + libmatroska v1.4.2

Видео
Идентификатор : 1
Формат : AVC
Формат/Информация : Advanced Video Codec
Профиль формата : High@L4.1
Параметр CABAC формата : Да
Параметр ReFrames формата : 12 кадров
Идентификатор кодека : V_MPEG4/ISO/AVC
Продолжительность : 1 ч. 11 м.
Битрейт : 2150 Кбит/сек
Ширина : 720 пикселей
Высота : 380 пикселей
Соотношение сторон : 2,021
Режим частоты кадров : Постоянный
Частота кадров : 25,000 кадров/сек
Цветовое пространство : YUV
Субдискретизация насыщенности : 4:2:0
Битовая глубина : 8 бит
Тип развёртки : Прогрессивная
Бит/(Пиксели*Кадры) : 0.314
Размер потока : 1,06 Гбайт (90%)
Библиотека кодирования : x264 core 146 r2538 121396c
Настройки программы : cabac=1 / ref=12 / deblock=1:-2:-2 / analyse=0x3:0x133 / me=umh / subme=10 / psy=1 / psy_rd=1.05:0.10 / mixed_ref=1 / me_range=32 / chroma_me=1 / trellis=2 / 8x8dct=1 / cqm=0 / deadzone=21,11 / fast_pskip=0 / chroma_qp_offset=-3 / threads=3 / lookahead_threads=1 / sliced_threads=0 / nr=0 / decimate=0 / interlaced=0 / bluray_compat=0 / constrained_intra=0 / bframes=16 / b_pyramid=2 / b_adapt=2 / b_bias=0 / direct=3 / weightb=1 / open_gop=0 / weightp=2 / keyint=250 / keyint_min=25 / scenecut=40 / intra_refresh=0 / rc=2pass / mbtree=0 / bitrate=2150 / ratetol=1.0 / qcomp=0.63 / qpmin=0 / qpmax=69 / qpstep=4 / cplxblur=20.0 / qblur=0.5 / ip_ratio=1.25 / pb_ratio=1.30 / aq=1:1.00
Язык : Russian
Default : Да
Forced : Нет
Цветовой диапазон : Limited
Основные цвета : BT.601 PAL
Характеристики трансфера : BT.470 System B, BT.470 System G
Коэффициенты матрицы : BT.601

Аудио
Идентификатор : 2
Формат : AC-3
Формат/Информация : Audio Coding 3
Расширение режима : CM
Параметр Endianness формата : Big
Идентификатор кодека : A_AC3
Продолжительность : 1 ч. 11 м.
Вид битрейта : Постоянный
Битрейт : 192 Кбит/сек
Каналы : 2 канала
Расположение каналов : Front: L R
Частота : 48,0 КГц
Частота кадров : 31,250 кадров/сек (1536 spf)
Битовая глубина : 16 бит
Метод сжатия : С потерями
Размер потока : 98,6 Мбайт (8%)
Язык : Russian
Default : Да
Forced : Нет
 
Не забывайте говорить Спасибо. Не уходите с раздачи!   
Торрент: Зарегистрирован [25 апр 2019, 20:07] Скачать торрент
Скачать торрент
[ Размер 12.47 КБ / Просмотров 0 ]
Статус:
Проверен
 
.torrent скачан: 201 раз
Хэш: 3479fcf63dc32441bb54a350ddc60ab0760cde93
Размер: 2.28 ГБ (2 449 124 552 байт)
Стать Автором раздачи
 
 
Раздал: 100 ГБ
Скачал: 0 байт
Ратио: Seed.
Сообщения: 111539
Зарегистрирован: 09 апр 2015, 22:31


  • Похожие торренты
    Ответы
    Просмотры
    Последнее сообщение

Вернуться в Кино СССР, Советской России, Российской республики (1917-1991)

Ресурс не предоставляет электронные версии произведений, а занимается лишь коллекционированием и каталогизацией ссылок, присылаемых и публикуемых на форуме нашими читателями. Если вы являетесь правообладателем какого-либо представленного материала и не желаете чтобы ссылка на него находилась в нашем каталоге, свяжитесь с нами и мы незамедлительно удалим её. Файлы для обмена на трекере предоставлены пользователями сайта, и администрация не несёт ответственности за их содержание. Просьба не заливать файлы, защищенные авторскими правами, а также файлы нелегального содержания!
cron