Я шагаю по Москве (1963) WEB-DLRip от GeneralFilm

 
 Статистика раздачи 
Размер: 744.11 МБ   |  Зарегистрирован: 22 апр 2019, 06:57   |   .torrent скачан: 0 раз
Сидеров: 1  [ 0 байт/сек ]     Личеров: 0  [ 0 байт/сек ]  
  

Я шагаю по Москве (1963) WEB-DLRip от GeneralFilm

Сообщение explosiveone » 22 апр 2019, 07:55

Информация о фильме
Оригинальное название: Я шагаю по Москве
Год выпуска: 1963
Жанр: Комедия, мелодрама
Выпущено: СССР, «Мосфильм»
Режиссер: Георгий Данелия
В ролях: Никита Михалков, Алексей Локтев, Галина Польских, Евгений Стеблов, Любовь Соколова, Ирина Титова, Ирина Мирошниченко, Владимир Басов ст., Ролан Быков, Лев Дуров, Арина Алейникова, Валентина Ананьина, Светлана Беседина, Вероника Васильева, Мария Виноградова, Н. Лихобабина, Евгения Мельникова, Анна Павлова, Алевтина Румянцева, Ирина Скобцева

О фильме: Действие фильма происходит в первой половине 1960-х годов в течение одного дня. Утром прилетевший в Москву из Сибири молодой монтажник Володя Ермаков, видит на аэродроме танцующую девушку. Во время краткого диалога она сообщает незнакомцу, что встречает мужа и у неё «всё хорошо». Позже герой знакомится с возвращающимся с ночной смены метростроевским проходчиком Колькой. Более всего тот мечтает об отдыхе, но основательно выспаться Кольке не удаётся — ему постоянно приходится помогать знакомым и незнакомым людям в решении различных житейских вопросов. Он показывает гостю столицы, как найти Строительный переулок, отыскивает хозяйку собаки, покусавшей Ермакова на бульваре, уговаривает сестру зашить Володины порванные брюки. Далее выясняется, что Колькино вмешательство необходимо и для улаживания проблем его товарища Саши — накануне свадьбы он получил повестку из военкомата, и нужно объяснить военкому, почему будущему молодожёну требуется отсрочка.



Качество: WEB-DLRip
Видео: XviD build 73, 720x304 (2.37:1), 25.000 fps, 1275 Kbps (0.233 bit/pixel)
Аудио: 48.0 kHz, MP3 2ch, 128 kbps
Продолжительность: 01:13:39
Перевод: Не требуется [Русский]
Cубтитры: нет


General
Complete name : D:RazdachiJa.Shagaju.Po.Moskve.1963.WEB-DLRip.GeneralFilm.avi
Format : AVI
Format/Info : Audio Video Interleave
File size : 744 MiB
Duration : 1 h 13 min
Overall bit rate : 1 413 kb/s
Writing application : VirtualDubMod 1.5.10.3 | www.virtualdub-fr.org || (build 2550/release)
Writing library : VirtualDubMod build 2550/release

Video
ID : 0
Format : MPEG-4 Visual
Format profile : Advanced Simple@L5
Format settings : BVOP1 / Custom Matrix
Format settings, BVOP : 1
Format settings, QPel : No
Format settings, GMC : No warppoints
Format settings, Matrix : Custom
Codec ID : XVID
Codec ID/Hint : XviD
Duration : 1 h 13 min
Bit rate : 1 275 kb/s
Width : 720 pixels
Height : 304 pixels
Display aspect ratio : 2.35:1
Frame rate : 25.000 FPS
Color space : YUV
Chroma subsampling : 4:2:0
Bit depth : 8 bits
Scan type : Progressive
Compression mode : Lossy
Bits/(Pixel*Frame) : 0.233
Stream size : 672 MiB (90%)
Writing library : XviD 73

Audio
ID : 1
Format : MPEG Audio
Format version : Version 1
Format profile : Layer 3
Codec ID : 55
Codec ID/Hint : MP3
Duration : 1 h 13 min
Bit rate mode : Constant
Bit rate : 128 kb/s
Channel(s) : 2 channels
Sampling rate : 48.0 kHz
Frame rate : 41.667 FPS (1152 SPF)
Compression mode : Lossy
Stream size : 67.4 MiB (9%)
Alignment : Aligned on interleaves
Interleave, duration : 40 ms (1.00 video frame)
Interleave, preload duratio : 504 ms
Writing library : LAME3.99r
Encoding settings : -m s -V 4 -q 2 -lowpass 17 -b 128

Релиз от:
 
Не забывайте говорить Спасибо. Не уходите с раздачи!   
Торрент: Зарегистрирован [22 апр 2019, 06:57] Скачать торрент
Скачать торрент
[ Размер 15.49 КБ / Просмотров 0 ]
Статус:
Проверен
 
.torrent скачан: 0 раз
Хэш: 7b094729a4328addf39dfc87e2929453523dd77a
Размер: 744.11 МБ (780 253 184 байт)
Стать Автором раздачи
 
 
Раздал: 100 ГБ
Скачал: 0 байт
Ратио: Seed.
Сообщения: 112056
Зарегистрирован: 09 апр 2015, 22:31


  • Похожие торренты
    Ответы
    Просмотры
    Последнее сообщение

Вернуться в Кино СССР, Советской России, Российской республики (1917-1991)

Ресурс не предоставляет электронные версии произведений, а занимается лишь коллекционированием и каталогизацией ссылок, присылаемых и публикуемых на форуме нашими читателями. Если вы являетесь правообладателем какого-либо представленного материала и не желаете чтобы ссылка на него находилась в нашем каталоге, свяжитесь с нами и мы незамедлительно удалим её. Файлы для обмена на трекере предоставлены пользователями сайта, и администрация не несёт ответственности за их содержание. Просьба не заливать файлы, защищенные авторскими правами, а также файлы нелегального содержания!
cron