ГудНайтКлаб [01-03] (2019) WEBRip от GeneralFilm

 
 Статистика раздачи 
Размер: 1018.59 МБ   |  Зарегистрирован: 20 апр 2019, 07:21   |   .torrent скачан: 0 раз
Сидеров: 1  [ 0 байт/сек ]     Личеров: 0  [ 0 байт/сек ]  
  

ГудНайтКлаб [01-03] (2019) WEBRip от GeneralFilm

Сообщение Nasty » 20 апр 2019, 08:35

Информация о фильме
Оригинальное название: ГудНайтКлаб
Год выпуска: 2019
Жанр: Юмористическое шоу, концерт, сатира
Выпущено: Украина, Квартал 95
Режиссер: Студия 95 квартал
В ролях: Валерий Жидков и др.

О фильме: 5 апреля 2019г. состоялась премьера юмористического проекта ГУДНАЙТКЛАБ от студии Квартал 95. Автор программы - Валерий Жидков, знакомый зрителям с Вечернего Квартала и Гуднайтшоу. Главным на сцене будет автор проекта. Своим вступительным стендапом он будет задавать тему вечера, а приглашенные юмористы ее развивать. Валерий Жидков называет проект открытой площадкой для комиков-стендаперов, как известных и опытных, так и новичков. В одном выпуске шоу могут участвовать 3-4 юмориста. По словам автора программы, в ГУДНАЙТКЛАБ НЕ БУДУТ говорить о политике. Темами для разговоров станут социальные вопросы. А главная цель проекта - весело провести время.

Качество: WEBRip
Видео: XviD build 73, 720x400 (16:9), 25.000 fps, 1550 Kbps (0.220 bit/pixel)
Аудио: 48.0 kHz, AC3, 2/0 ch, 192 kbps
Продолжительность: 3 x ~ 00:27:00
Перевод: Не требуется [Русский]
Cубтитры: нет


General
Complete name : D:RazdachiGudNajtKlab.2019.XviD.WEBRip.GeneralFilmGudNajtKlab.s01.e01.avi
Format : AVI
Format/Info : Audio Video Interleave
File size : 369 MiB
Duration : 29 min 28 s
Overall bit rate : 1 752 kb/s
Writing application : VirtualDubMod 1.5.10.3 | www.virtualdub-fr.org || (build 2550/release)
Writing library : VirtualDubMod build 2550/release

Video
ID : 0
Format : MPEG-4 Visual
Format profile : Advanced Simple@L5
Format settings : BVOP1 / Custom Matrix
Format settings, BVOP : 1
Format settings, QPel : No
Format settings, GMC : No warppoints
Format settings, Matrix : Custom
Codec ID : XVID
Codec ID/Hint : XviD
Duration : 29 min 28 s
Bit rate : 1 550 kb/s
Width : 720 pixels
Height : 400 pixels
Display aspect ratio : 16:9
Frame rate : 25.000 FPS
Color space : YUV
Chroma subsampling : 4:2:0
Bit depth : 8 bits
Scan type : Progressive
Compression mode : Lossy
Bits/(Pixel*Frame) : 0.215
Stream size : 327 MiB (88%)
Writing library : XviD 73

Audio
ID : 1
Format : AC-3
Format/Info : Audio Coding 3
Commercial name : Dolby Digital
Codec ID : 2000
Duration : 29 min 28 s
Bit rate mode : Constant
Bit rate : 192 kb/s
Channel(s) : 2 channels
Channel layout : L R
Sampling rate : 48.0 kHz
Frame rate : 31.250 FPS (1536 SPF)
Bit depth : 16 bits
Compression mode : Lossy
Stream size : 40.5 MiB (11%)
Alignment : Split accross interleaves
Interleave, duration : 40 ms (1.00 video frame)
Interleave, preload duratio : 500 ms
Service kind : Complete Main

Релиз от:
 
Не забывайте говорить Спасибо. Не уходите с раздачи!   
Торрент: Зарегистрирован [20 апр 2019, 07:21] Скачать торрент
Скачать торрент
[ Размер 20.98 КБ / Просмотров 0 ]
Статус:
Проверен
 
.torrent скачан: 0 раз
Хэш: 7426b0c9e028191928e1d03135c7dedcccc0b580
Размер: 1018.59 МБ (1 068 066 816 байт)
Стать Автором раздачи
 
 
Раздал: 100 ГБ
Скачал: 0 байт
Ратио: Seed.
Сообщения: 39288
Зарегистрирован: 09 апр 2015, 19:56


  • Похожие торренты
    Ответы
    Просмотры
    Последнее сообщение

Вернуться в Развлекательные телепередачи и шоу, приколы и юмор

Ресурс не предоставляет электронные версии произведений, а занимается лишь коллекционированием и каталогизацией ссылок, присылаемых и публикуемых на форуме нашими читателями. Если вы являетесь правообладателем какого-либо представленного материала и не желаете чтобы ссылка на него находилась в нашем каталоге, свяжитесь с нами и мы незамедлительно удалим её. Файлы для обмена на трекере предоставлены пользователями сайта, и администрация не несёт ответственности за их содержание. Просьба не заливать файлы, защищенные авторскими правами, а также файлы нелегального содержания!
cron