Форсаж 5 / Fast Five (2011) HybridRip 720p | D | Театральная версия | Open Matte

 
 Статистика раздачи 
Размер: 8.45 ГБ   |  Зарегистрирован: 26 мар 2019, 20:18   |   .torrent скачан: 0 раз
Сидеров: 1  [ 0 байт/сек ]     Личеров: 0  [ 0 байт/сек ]  
  

Форсаж 5 / Fast Five (2011) HybridRip 720p | D | Театральная версия | Open Matte

Сообщение Lester » 26 мар 2019, 20:41

Информация о фильме
Название: Форсаж 5
Оригинальное название: Fast Five
Год выхода: 2011
Жанр: Боевик, триллер, драма, криминал
Режиссер: Джастин Лин
В ролях: Вин Дизель, Пол Уокер, Дуэйн Джонсон, Джордана Брюстер, Тайриз Гибсон, Лудакрис, Мэтт Шульце, Санг Кенг, Гал Гадот, Тего Калдерон, Дон Омар

О фильме:
Бывший полицейский Брайан О`Коннер вместе с бывалым лихачом Домиником Торетто совсем немного увлеклись жизнью вне закона. После того, как Брайан и Миа Торетто освободили Доминика, они не рискуют долго задерживаться на одном месте, так как являются желанной целью порядком недовольных копов.



Страна: США
Студия: Universal Pictures
Продолжительность: 02:10:21
Перевод: Профессиональный (дублированный)

Файл
Кодек: h.264
Качество: HybridRip 720p
Видео: AVC/H264, 1280x720, 23.976 fps, 8000 kbps
Аудио 1: русский (AC3, 6 ch, 48 kHz, 640 kbps) |Дубляж|
Аудио 2: английский (AC3, 6 ch, 48 kHz, 640 kbps)
Субтитры: Русские (Forced, Full), Английские (Full)

General
UniqueID : 235415601769466893299443006549896428252 (0xB11B654B70AF40268C40D28477AB7ADC)
Complete name : D:Fast Five (2011) Open Matte.mkv
Format : Matroska
File size : 8.45 GiB
Duration : 2h 10mn
Overall bit rate : 9 284 Kbps
Movie name : Fast Five (2011) [Theatrical Cut] Hybrid-OM 720p -SOFCJ
Encoded date : UTC 2019-03-08 07:02:01
Writing application : mkvmerge v8.3.0 ('Over the Horizon') 64bit
Writing library : libebml v1.3.1 + libmatroska v1.4.2
Cover : Yes

Video
ID : 1
Format : AVC
Format/Info : Advanced Video Codec
Format profile : High@L4.1
Format settings, CABAC : Yes
Format settings, ReFrames : 5 frames
Codec ID : V_MPEG4/ISO/AVC
Duration : 2h 10mn
Bit rate : 8 000 Kbps
Width : 1 280 pixels
Height : 720 pixels
Display aspect ratio : 16:9
Frame rate : 23.976 fps
Color space : YUV
Chroma subsampling : 4:2:0
Bit depth : 8 bits
Scan type : Progressive
Bits/(Pixel*Frame) : 0.362
Stream size : 7.12 GiB (84%)
Title : [Hybrid by SOFCJ]
Writing library : x264 core 157 r2867+103 0d6443f t_mod_Custom_2 [8-bit@all X86_64]
Encoding settings : cabac=1 / ref=5 / deblock=1:-3:-3 / analyse=0x3:0x133 / me=umh / subme=11 / psy=1 / fade_compensate=0.00 / psy_rd=1.00:0.00 / mixed_ref=1 / me_range=32 / chroma_me=1 / trellis=2 / 8x8dct=1 / cqm=0 / deadzone=21,11 / fast_pskip=0 / chroma_qp_offset=-2 / threads=12 / lookahead_threads=2 / sliced_threads=0 / nr=0 / decimate=0 / interlaced=0 / bluray_compat=0 / constrained_intra=0 / fgo=0 / bframes=8 / b_pyramid=2 / b_adapt=2 / b_bias=0 / direct=3 / weightb=1 / open_gop=0 / weightp=2 / keyint=230 / keyint_min=23 / scenecut=40 / intra_refresh=0 / rc_lookahead=60 / rc=2pass / mbtree=1 / bitrate=8000 / ratetol=1.0 / qcomp=0.60 / qpmin=0:0:0 / qpmax=69:69:69 / qpstep=4 / cplxblur=20.0 / qblur=0.5 / vbv_maxrate=62500 / vbv_bufsize=78125 / nal_hrd=none / filler=0 / ip_ratio=1.40 / aq=1:1.00 / aq-sensitivity=10.00 / aq-factor=1.00:1.00:1.00 / aq2=0 / aq3=0
Language : English
Color primaries : BT.709-5, BT.1361, IEC 61966-2-4, SMPTE RP177
Transfer characteristics : BT.709-5, BT.1361
Matrix coefficients : BT.709-5, BT.1361, IEC 61966-2-4 709, SMPTE RP177

Audio #1
ID : 2
Format : AC-3
Format/Info : Audio Coding 3
Mode extension : CM (complete main)
Codec ID : A_AC3
Duration : 2h 10mn
Bit rate mode : Constant
Bit rate : 640 Kbps
Channel(s) : 6 channels
Channel positions : Front: L C R, Side: L R, LFE
Sampling rate : 48.0 KHz
Bit depth : 16 bits
Compression mode : Lossy
Stream size : 597 MiB (7%)
Language : Russian

Audio #2
ID : 3
Format : AC-3
Format/Info : Audio Coding 3
Mode extension : CM (complete main)
Codec ID : A_AC3
Duration : 2h 10mn
Bit rate mode : Constant
Bit rate : 640 Kbps
Channel(s) : 6 channels
Channel positions : Front: L C R, Side: L R, LFE
Sampling rate : 48.0 KHz
Bit depth : 16 bits
Compression mode : Lossy
Stream size : 597 MiB (7%)
Language : English

Text #1
ID : 4
Format : UTF-8
Codec ID : S_TEXT/UTF8
Codec ID/Info : UTF-8 Plain Text
Title : Forced
Language : Russian

Text #2
ID : 5
Format : UTF-8
Codec ID : S_TEXT/UTF8
Codec ID/Info : UTF-8 Plain Text
Title : Full Goblin
Language : Russian

Text #3
ID : 6
Format : UTF-8
Codec ID : S_TEXT/UTF8
Codec ID/Info : UTF-8 Plain Text
Title : Full
Language : English

Menu
00:00:00.000 : :Chapter 01
00:07:45.715 : :Chapter 02
00:17:29.465 : :Chapter 03
00:23:01.838 : :Chapter 04
00:28:21.574 : :Chapter 05
00:34:55.635 : :Chapter 06
00:40:46.318 : :Chapter 07
00:48:41.585 : :Chapter 08
00:55:20.317 : :Chapter 09
01:03:09.952 : :Chapter 10
01:10:44.657 : :Chapter 11
01:18:25.867 : :Chapter 12
01:22:36.201 : :Chapter 13
01:27:58.731 : :Chapter 14
01:31:53.424 : :Chapter 15
01:39:13.322 : :Chapter 16
01:47:00.747 : :Chapter 17
01:54:50.133 : :Chapter 18
01:59:15.231 : :Chapter 19
02:03:24.397 : :Chapter 20
02:10:21.021 : :Chapter 21
Гибрид получен путем автоматического совмещения нескольких WEBRip и BD. За создание гибрида спасибо SOFCJ
сравнения с BD


 
Не забывайте говорить Спасибо. Не уходите с раздачи!   
Торрент: Зарегистрирован [26 мар 2019, 20:18] Скачать торрент
Скачать торрент
[ Размер 22.11 КБ / Просмотров 3 ]
Статус:
Проверен
 
.torrent скачан: 0 раз
Хэш: 0d6737dfa8fbf326b4f5e73a7390348982a7b31a
Размер: 8.45 ГБ (9 076 566 667 байт)
Стать Автором раздачи
 
 
Раздал: 100 ГБ
Скачал: 0 байт
Ратио: Seed.
Сообщения: 131043
Зарегистрирован: 09 апр 2015, 23:00


  • Похожие торренты
    Ответы
    Просмотры
    Последнее сообщение

Вернуться в Зарубежное кино

Ресурс не предоставляет электронные версии произведений, а занимается лишь коллекционированием и каталогизацией ссылок, присылаемых и публикуемых на форуме нашими читателями. Если вы являетесь правообладателем какого-либо представленного материала и не желаете чтобы ссылка на него находилась в нашем каталоге, свяжитесь с нами и мы незамедлительно удалим её. Файлы для обмена на трекере предоставлены пользователями сайта, и администрация не несёт ответственности за их содержание. Просьба не заливать файлы, защищенные авторскими правами, а также файлы нелегального содержания!
cron