Биатлон. Кубок мира 2019. Осло-Хольменколлен (Норвегия). 9-й этап. Мужчины. Масс-старт 15 км [24.03] (2019) HDTV 1080i

 
 Статистика раздачи 
Размер: 3.16 ГБ   |  Зарегистрирован: 24 мар 2019, 20:10   |   .torrent скачан: 0 раз
Сидеров: 1  [ 0 байт/сек ]     Личеров: 0  [ 0 байт/сек ]  
  

Биатлон. Кубок мира 2019. Осло-Хольменколлен (Норвегия). 9-й этап. Мужчины. Масс-старт 15 км [24.03] (2019) HDTV 1080i

Сообщение Nasty » 24 мар 2019, 22:16

Кубок мира 2018-19. 9-й этап. Осло-Хольменколлен (Норвегия)
Мужчины. Масс-старт 15 км



Вид спорта: Биатлон
Комментарий: Профессиональный
Язык комментариев: Русский (Губерниев)


Описание: Кубок мира 2018-19. 9-й этап. Осло-Хольменколлен (Норвегия). Мужчины. Масс-старт 15 км. Опять ничего не показали, ни награждение, ни вручение глобусов...


Автор рипа: Настольный теннисист

Качество: HDTV
Формат: TS
Видео кодек: AVC
Аудио кодек: MP2
Видео: MPEG4 Video (H264) 1920x1080 (16:9) 25fps 8400kbps
Аудио: MPEG Audio 48000Hz stereo 192kbps




00:50:05




Код: Выделить всё
General
ID                                       : 1 (0x1)
Complete name                            : Y:торрентБиатлон. Кубок мира 2018-2019. Осло. Мужчины. Масс-старт 15 км.ts
Format                                   : MPEG-TS
File size                                : 3.16 GiB
Duration                                 : 50 min 5 s
Overall bit rate mode                    : Variable
Overall bit rate                         : 9 034 kb/s

Video
ID                                       : 324 (0x144)
Menu ID                                  : 12104 (0x2F48)
Format                                   : AVC
Format/Info                              : Advanced Video Codec
Format profile                           : High@L4
Format settings                          : CABAC / 4 Ref Frames
Format settings, CABAC                   : Yes
Format settings, RefFrames               : 4 frames
Codec ID                                 : 27
Duration                                 : 50 min 5 s
Bit rate                                 : 8 394 kb/s
Width                                    : 1 920 pixels
Height                                   : 1 080 pixels
Display aspect ratio                     : 16:9
Frame rate                               : 25.000 FPS
Standard                                 : Component
Color space                              : YUV
Chroma subsampling                       : 4:2:0
Bit depth                                : 8 bits
Scan type                                : Interlaced
Scan type, store method                  : Separated fields
Scan order                               : Top Field First
Bits/(Pixel*Frame)                       : 0.162
Stream size                              : 2.94 GiB (93%)
Color range                              : Limited
Color primaries                          : BT.709
Transfer characteristics                 : BT.709
Matrix coefficients                      : BT.709

Audio
ID                                       : 404 (0x194)
Menu ID                                  : 12104 (0x2F48)
Format                                   : MPEG Audio
Format version                           : Version 1
Format profile                           : Layer 2
Codec ID                                 : 3
Duration                                 : 50 min 5 s
Bit rate mode                            : Constant
Bit rate                                 : 192 kb/s
Channel(s)                               : 2 channels
Sampling rate                            : 48.0 kHz
Frame rate                               : 41.667 FPS (1152 SPF)
Compression mode                         : Lossy
Stream size                              : 68.8 MiB (2%)
Language                                 : Russian

 
Не забывайте говорить Спасибо. Не уходите с раздачи!   
Торрент: Зарегистрирован [24 мар 2019, 20:10] Скачать торрент
Скачать торрент
[ Размер 16.78 КБ / Просмотров 1 ]
Статус:
Проверен
 
.torrent скачан: 0 раз
Хэш: f1f3e9e9f78cdfa7fc953b89f84066870f965bf9
Размер: 3.16 ГБ (3 394 048 036 байт)
Стать Автором раздачи
 
 
Раздал: 100 ГБ
Скачал: 0 байт
Ратио: Seed.
Сообщения: 39930
Зарегистрирован: 09 апр 2015, 19:56


  • Похожие торренты
    Ответы
    Просмотры
    Последнее сообщение

Вернуться в Спорт и здоровье (Спортивные турниры, фильмы и передачи etc)

Ресурс не предоставляет электронные версии произведений, а занимается лишь коллекционированием и каталогизацией ссылок, присылаемых и публикуемых на форуме нашими читателями. Если вы являетесь правообладателем какого-либо представленного материала и не желаете чтобы ссылка на него находилась в нашем каталоге, свяжитесь с нами и мы незамедлительно удалим её. Файлы для обмена на трекере предоставлены пользователями сайта, и администрация не несёт ответственности за их содержание. Просьба не заливать файлы, защищенные авторскими правами, а также файлы нелегального содержания!
cron