Враг внутри / The Enemy Within [01x01 из 12] (2019) WEB-DL 720p от OlLanDGroup | Lostfilm, Jaskier

 
 Статистика раздачи 
Размер: 2.16 ГБ   |  Зарегистрирован: 15 мар 2019, 00:16   |   .torrent скачан: 0 раз
Сидеров: 1  [ 0 байт/сек ]     Личеров: 0  [ 0 байт/сек ]  
  

Враг внутри / The Enemy Within [01x01 из 12] (2019) WEB-DL 720p от OlLanDGroup | Lostfilm, Jaskier

Сообщение explosiveone » 15 мар 2019, 01:23

Информация о фильме
Название: Враг внутри
Оригинальное название: The Enemy Within
Год выхода: 2019
Жанр: драма

Режиссёр: Ричард Дж. Льюис, Марк Пеллингтон, Маризоль Адлер, Лили Марийе
В ролях: Дженнифер Карпентер (Erica Shepherd), Моррис Честнат (Will Keaton), Келли Гарнер (Kate Ryan), Ной Миллс (Jason Bragg), Раза Джеффри (Daniel Zain), Кассандра Фриман (Jacqueline Pettigrew), Джеймс Карпинелло (Anthony Cabrera), Ной Бин (Christopher Shepherd), Корал Пенья (Anna Cruz), София Геннуса (Hannah Shepherd)

О фильме: Эрику Шепард — бывшего агента ЦРУ и изменницу родины — освобождают из тюрьмы. Вместе с агентом ФБР Уиллом Китоном она должна будет найти опасного преступника, который хорошо ей знаком.



Страна: США
Студия: 82nd West, Universal TV
Продолжительность: ~ 00:43:00
Перевод #1: Профессиональный (многоголосый закадровый) Lostfilm
Перевод #2: Профессиональный (многоголосый закадровый) Jaskier

Файл
Кодек: MPEG-4 AVC
Качество: WEB-DL 720p | Чистый видеоряд/без рекламы |
Видео: 1280х720 (16:9), 23.976 fps, MPEG-4 AVC ~6 000 kbps avg, 0.256 bit/pixel
Аудио #1: AC3, 48 kHz, 6 ch, 384 Кбит/сек | RUS | MVO, Lostfilm
Аудио #1: AC3, 48 kHz, 6 ch, 384 Кбит/сек | RUS | MVO, Jaskier
Аудио #2: AC3, 48 kHz, 6 ch, 640 Кбит/сек | ENG
Субтитры: Русские (Forced), английские (полные)

Сэмпл

01. Pilot / Пилот
General
Unique ID : 230704581813649491884956665096661958279 (0xAD901613F86CACD43C85F1136ABCFE87)
Complete name : D:Мои рипыThe.Enemy.Within.S01.WEB-DL 720p.2xMVO.OlLanDGroupThe.Enemy.Within.s01e01.OlLanDGroup.mkv
Format : Matroska
Format version : Version 4
File size : 2.16 GiB
Duration : 43 min 42 s
Overall bit rate : 7 059 kb/s
Movie name : #OlLanDGroup#
Encoded date : UTC 2019-03-14 15:32:54
Writing application : mkvmerge v31.0.0 ('Dolores In A Shoestand') 64-bit
Writing library : libebml v1.3.6 + libmatroska v1.4.9

Video
ID : 1
Format : AVC
Format/Info : Advanced Video Codec
Format profile : High@L3.1
Format settings : CABAC / 4 Ref Frames
Format settings, CABAC : Yes
Format settings, ReFrames : 4 frames
Codec ID : V_MPEG4/ISO/AVC
Duration : 43 min 42 s
Bit rate mode : Constant
Bit rate : 5 648 kb/s
Nominal bit rate : 6 000 kb/s
Width : 1 280 pixels
Height : 720 pixels
Display aspect ratio : 16:9
Frame rate mode : Constant
Frame rate : 23.976 (24000/1001) FPS
Color space : YUV
Chroma subsampling : 4:2:0
Bit depth : 8 bits
Scan type : Progressive
Bits/(Pixel*Frame) : 0.256
Stream size : 1.72 GiB (80%)
Language : English
Default : Yes
Forced : No
Color range : Limited
Color primaries : BT.709
Transfer characteristics : BT.709
Matrix coefficients : BT.709

Audio #1
ID : 2
Format : AC-3
Format/Info : Audio Coding 3
Commercial name : Dolby Digital
Codec ID : A_AC3
Duration : 43 min 42 s
Bit rate mode : Constant
Bit rate : 384 kb/s
Channel(s) : 6 channels
Channel layout : L R C LFE Ls Rs
Sampling rate : 48.0 kHz
Frame rate : 31.250 FPS (1536 SPF)
Bit depth : 16 bits
Compression mode : Lossy
Stream size : 120 MiB (5%)
Title : 5.1 @ 384 kbps - MVO, Lostfilm
Language : Russian
Service kind : Complete Main
Default : Yes
Forced : No

Audio #2
ID : 3
Format : AC-3
Format/Info : Audio Coding 3
Commercial name : Dolby Digital
Codec ID : A_AC3
Duration : 43 min 42 s
Bit rate mode : Constant
Bit rate : 384 kb/s
Channel(s) : 6 channels
Channel layout : L R C LFE Ls Rs
Sampling rate : 48.0 kHz
Frame rate : 31.250 FPS (1536 SPF)
Bit depth : 16 bits
Compression mode : Lossy
Stream size : 120 MiB (5%)
Title : 5.1 @ 384 kbps - MVO, Jaskier
Language : Russian
Service kind : Complete Main
Default : No
Forced : No

Audio #3
ID : 4
Format : AC-3
Format/Info : Audio Coding 3
Commercial name : Dolby Digital
Codec ID : A_AC3
Duration : 43 min 42 s
Bit rate mode : Constant
Bit rate : 640 kb/s
Channel(s) : 6 channels
Channel layout : L R C LFE Ls Rs
Sampling rate : 48.0 kHz
Frame rate : 31.250 FPS (1536 SPF)
Bit depth : 16 bits
Compression mode : Lossy
Stream size : 200 MiB (9%)
Title : 5.1 @ 640 kbps - Original
Language : English
Service kind : Complete Main
Default : No
Forced : No

Text #1
ID : 5
Format : UTF-8
Codec ID : S_TEXT/UTF8
Codec ID/Info : UTF-8 Plain Text
Duration : 33 min 31 s
Bit rate : 5 b/s
Count of elements : 19
Stream size : 1.39 KiB (0%)
Title : Forced
Language : Russian
Default : Yes
Forced : Yes

Text #2
ID : 6
Format : UTF-8
Codec ID : S_TEXT/UTF8
Codec ID/Info : UTF-8 Plain Text
Duration : 43 min 8 s
Bit rate : 72 b/s
Count of elements : 820
Stream size : 22.8 KiB (0%)
Title : SDH
Language : English
Default : No
Forced : No


Релиз:
 
Не забывайте говорить Спасибо. Не уходите с раздачи!   
Торрент: Зарегистрирован [15 мар 2019, 00:16] Скачать торрент
Скачать торрент
[ Размер 12.66 КБ / Просмотров 2 ]
Статус:
Проверен
 
.torrent скачан: 0 раз
Хэш: 852d75d97fd58acabae70172724d60cc0a96c558
Размер: 2.16 ГБ (2 314 276 296 байт)
Стать Автором раздачи
 
 
Раздал: 100 ГБ
Скачал: 0 байт
Ратио: Seed.
Сообщения: 106938
Зарегистрирован: 09 апр 2015, 22:31


  • Похожие торренты
    Ответы
    Просмотры
    Последнее сообщение

Вернуться в Сериалы

Ресурс не предоставляет электронные версии произведений, а занимается лишь коллекционированием и каталогизацией ссылок, присылаемых и публикуемых на форуме нашими читателями. Если вы являетесь правообладателем какого-либо представленного материала и не желаете чтобы ссылка на него находилась в нашем каталоге, свяжитесь с нами и мы незамедлительно удалим её. Файлы для обмена на трекере предоставлены пользователями сайта, и администрация не несёт ответственности за их содержание. Просьба не заливать файлы, защищенные авторскими правами, а также файлы нелегального содержания!
cron